Příšerná kvalita originálních CD

CD, SACD, HDCD, DVD, DVDAudio, BluRay, streamovaní, formáty, média, online služby, playery, digitální knižnice a vše kolem digitálu
Odpovědět
bh69
Příspěvky: 1863
Registrován: 18 říj 2009 07:22
Kontaktovat uživatele:

Re: Příšerná kvalita originálních CD

Příspěvek od bh69 » 02 srp 2016 14:15

pritom by se to dalo resit az pri prehravani - a treba volitelne podle toho jak o kdo chce
Nejsem hifista - jen mám rád hudbu. Hudba bez vnitřního ticha je jenom hluk.
[miniPC - OpenElec-XBMC/Foobar] > USB > [M-DAC] > Kimber PBJ > [Marantz] > Oehlbach > [Dynaudio]

THresil
Příspěvky: 210
Registrován: 07 srp 2010 11:28
Kontaktovat uživatele:

Re: Příšerná kvalita originálních CD

Příspěvek od THresil » 02 srp 2016 14:38

bh69: A jak bys to řešil například, když máš mobil nebo mp3 přehrávač a když už máš hlasitost na max. a pořád skladbu sotva slyšíš ve sluchátkách? Jde to řešit samozřejmě i softwarovým zesílením, ale to je zvuk doprasený ještě víc. Nic tím neobhajuju, ale možná, že se k tomu přistoupilo i kvůli tomuto = skladba je v základu hlasitě, takže se "šetří" kapesní zařízení, aby déle vydržela baterka...
Ale nevím, jen mě to teď tak napadlo...

bh69
Příspěvky: 1863
Registrován: 18 říj 2009 07:22
Kontaktovat uživatele:

Re: Příšerná kvalita originálních CD

Příspěvek od bh69 » 02 srp 2016 14:48

nejde prece o hlasitost ale o kompresi dynamiky a tu muze uplne stejne udelat prehravac ... konecne treba pro rozhlasove vysilani se to bezne pouzivalo a pouziva.

pokud to hraje celkove slabe, tak je problem nekde jinde - nevhodna sluchatka, slaby zesilovac
Nejsem hifista - jen mám rád hudbu. Hudba bez vnitřního ticha je jenom hluk.
[miniPC - OpenElec-XBMC/Foobar] > USB > [M-DAC] > Kimber PBJ > [Marantz] > Oehlbach > [Dynaudio]

Uživatelský avatar
fox
Příspěvky: 1940
Registrován: 07 črc 2008 10:03
Kontaktovat uživatele:

Re: Příšerná kvalita originálních CD

Příspěvek od fox » 02 srp 2016 15:59

Když si pustím v autě kvalitně nahrané CD, nutí mě to neustále upravovat hlasitost. Díky zvuku motoru špatně slyším slabé signály a hlasité mi potom trhají bubínky. Mi to zas tak moc nevadí, ale manželka většinou protestuje.
Lidé jsou zvyklí na komprimovaný zvuk televize a rozhlasu. Mnohým dynamický zvuk DK a hudby vadí. Hlavně ženským.
Michell Gyrodec/Orbe,SME V,Lyra Delos,RCM,step up trafo MgBeran,Esoteric DV60,Stream box RS,Music First Audio,Red Wine Audio,Leben300,Tannoy Stirlig+ST100,Acoustic Revive,WBT a plno dalších ptákovin.

Renown
Příspěvky: 2239
Registrován: 18 dub 2008 10:22
Kontaktovat uživatele:
Vybavení

Re: Příšerná kvalita originálních CD

Příspěvek od Renown » 02 srp 2016 18:25

Mnohým dynamický zvuk DK a hudby vadí. Hlavně ženským.
přesně tak !
Project Audio Systems

bh69
Příspěvky: 1863
Registrován: 18 říj 2009 07:22
Kontaktovat uživatele:

Re: Příšerná kvalita originálních CD

Příspěvek od bh69 » 02 srp 2016 19:53

no jestli jim spis nevadi, kdyz to je zbytecne kraval (to mne vadi taky a to hodne)
Nejsem hifista - jen mám rád hudbu. Hudba bez vnitřního ticha je jenom hluk.
[miniPC - OpenElec-XBMC/Foobar] > USB > [M-DAC] > Kimber PBJ > [Marantz] > Oehlbach > [Dynaudio]

dkdkdk
Příspěvky: 333
Registrován: 13 lis 2014 18:22
Kontaktovat uživatele:

Re: Příšerná kvalita originálních CD

Příspěvek od dkdkdk » 08 zář 2016 21:09

Pokud posloucháte někdo rockové rádia, určitě jste zaznamenali Flammable od Biffy Clyro, album Ellipsis. Z rádia při práci ve velké hale to zní pěkně, po testu na sluchátkách před koupí CD - DR3 :? Neříkejte mi, že tohle je určeno na poslech v mobilech, mp3kách atd. Ta skladba pak už nehraje, ale jen chrčí, obzvlášť, když je to rockovka, která točí automaticky volume nahoru.

Uživatelský avatar
RedBaron
Příspěvky: 178
Registrován: 11 dub 2013 16:08
Kontaktovat uživatele:
Vybavení

Re: Příšerná kvalita originálních CD

Příspěvek od RedBaron » 09 zář 2016 07:14

Škoda, Biffy Clyro je výborná muzika, ale s kompresí to přehánějí na všech svých albech. Stejně tak mají výborný zvuk Foo Fighters na Wasting Light, však taky mluvili o tom, že se to nahrávalo na pásky "postaru" a všude se tím chlubili. No, bohužel hned první skladba z dalšího alba Sonic Highways je ve Foobaru jeden dlouhý zarovnaný obdélník *headbang*

Někde se tu mluvilo o špatné nahrávce Eagles z nějakého setkání hifistů a já tu mám 24/192 diskografii a zvuk mají skvělý s parádní dynamikou, radost poslouchat.

Uživatelský avatar
drfish
Příspěvky: 1297
Registrován: 17 pro 2012 17:16
Kontaktovat uživatele:
Vybavení

Re: Příšerná kvalita originálních CD

Příspěvek od drfish » 10 zář 2016 12:30

Ohledně Foo Fighters.
Dave Grohl je neuvěřitelně sebejistý svými nahrávacími schopnostmi, dokáže o tom i točit filmy a lidi mu to žerou (viz http://www.csfd.cz/film/331002-sound-city/komentare/). Zřejmě proto, že tomu nerozumí, mu vychází jedno zprasené album za druhým. Když si dám náhodné přehrávání ve své sbírce muziky, vždycky, když to začne náhle ukrutně řvát, vím, že přišli na řadu Foo Fighters. Nejnařvanější kapela co znám. A to jsem měl jejich muziku vždycky rád. :mrgreen:
CAMBRIDGE CXU, TEAC DV-50, PRIMARE SP33+A30.7, 2xCAMBRIDGE 851W monobloky, hlavní B&W 804D, centr B&W HTM3S, zadní B&W 805S, sub B&W ASW CM

svartenatt
Příspěvky: 350
Registrován: 13 čer 2016 04:17
Kontaktovat uživatele:

Re: Příšerná kvalita originálních CD

Příspěvek od svartenatt » 10 zář 2016 21:35

Kdo by chtěl zkusit kvalitní death metalové CD, tak třeba Cryptopsy - Blasphemy Made Flesh

foobar2000 1.2.2 / Dynamic Range Meter 1.1.1
log date: 2013-03-11 15:06:06

--------------------------------------------------------------------------------
Analyzed: Cryptopsy / Blasphemy Made Flesh
--------------------------------------------------------------------------------

DR Peak RMS Duration Track
--------------------------------------------------------------------------------
DR14 -1.57 dB -16.93 dB 4:33 01-Defenstration
DR14 -0.80 dB -16.21 dB 3:51 02-Abigor
DR14 -0.95 dB -16.64 dB 4:25 03-Open Face Surgery
DR15 -0.14 dB -17.34 dB 4:01 04-Serial Messiah
DR15 -0.50 dB -17.09 dB 4:29 05-Born Headless
DR14 -0.31 dB -16.08 dB 3:06 06-Swine of the Cross
DR15 -0.75 dB -16.75 dB 2:47 07-Gravaged (A Cryptopsy)
DR15 -0.64 dB -16.56 dB 3:34 08-Memories of Blood
DR16 -0.15 dB -17.46 dB 4:21 09-Mutant Christ
DR14 -0.86 dB -16.16 dB 4:35 10-Pathological Frolic
--------------------------------------------------------------------------------

Number of tracks: 10
Official DR value: DR15

Samplerate: 44100 Hz
Channels: 2
Bits per sample: 16
Bitrate: 1001 kbps
Codec: FLAC

Death - Individual Thought Patterns


foobar2000 1.3.6 / Dynamic Range Meter 1.1.1
log date: 2015-03-23 22:59:54

--------------------------------------------------------------------------------
Analyzed: Death / Individual Thought Patterns [SRCS 7461]
--------------------------------------------------------------------------------

DR Peak RMS Duration Track
--------------------------------------------------------------------------------
DR13 0.00 dB -14.16 dB 3:30 01-Overactive Imagination
DR12 0.00 dB -13.65 dB 3:56 02-In Human Form
DR13 0.00 dB -14.21 dB 3:40 03-Jealousy
DR13 0.00 dB -14.34 dB 4:12 04-Trapped in a Corner
DR13 0.00 dB -13.70 dB 3:17 05-Nothing Is Everything
DR12 -0.06 dB -14.19 dB 4:46 06-Mentally Blind
DR13 0.00 dB -13.88 dB 4:00 07-Individual Thought Patterns
DR13 0.00 dB -15.12 dB 4:05 08-Destiny
DR12 0.00 dB -13.93 dB 4:19 09-Out of Touch
DR13 0.00 dB -15.58 dB 4:11 10-The Philosopher
--------------------------------------------------------------------------------

Number of tracks: 10
Official DR value: DR13

Samplerate: 44100 Hz
Channels: 2
Bits per sample: 16
Bitrate: 884 kbps
Codec: FLAC

Z nových, nejen tvrdě metalových třeba projekt Kauan - Sorni Nai z 2015

foobar2000 1.3.10 / Dynamic Range Meter 1.1.1
--------------------------------------------------------------------------------
Analyzed: Kauan / Sorni Nai
--------------------------------------------------------------------------------

DR Peak RMS Duration Track
--------------------------------------------------------------------------------
DR10 -0.25 dB -12.79 dB 7:57 01-akva
DR9 -0.26 dB -11.41 dB 7:08 02-kit
DR10 -0.26 dB -11.68 dB 7:50 03-khurum
DR9 -0.25 dB -11.24 dB 7:18 04-nila
DR10 -0.26 dB -12.09 dB 7:19 05-at
DR10 -0.25 dB -12.62 dB 8:20 06-khot
DR10 -0.26 dB -12.18 dB 6:14 07-sat
--------------------------------------------------------------------------------

Number of tracks: 7
Official DR value: DR10

Samplerate: 44100 Hz
Channels: 2
Bits per sample: 24
Bitrate: 1516 kbps
Codec: FLAC

Zajímavou věc udělal švédský hudebník a producent Dan Swano. Projekt Witherscape - The New Tomorrow, obsahuje dvakrát stejný obsah, ale jedna část s DR6, druhá označená jako Vinyl Mix DR12.

DR6 0.00 dB -7.85 dB 4:42 01-The New Tomorrow
DR6 0.00 dB -8.58 dB 4:27 02-Defenders of Creation (Warrior cover)
DR6 0.00 dB -9.20 dB 2:36 03-A World Without Heroes (KISS cover)
DR7 0.00 dB -9.02 dB 6:35 04-Out in the Cold (Judas Priest cover)
DR7 0.00 dB -9.40 dB 4:40 05-Dead for Another Day
DR12 -0.09 dB -13.82 dB 4:42 06-The New Tomorrow (Vinyl Mix)
DR12 -0.15 dB -14.56 dB 4:27 07-Defenders of Creation (Warrior cover) (Vinyl Mix)
DR12 -0.20 dB -15.21 dB 2:36 08-A World Without Heroes (KISS cover) (Vinyl Mix)
DR13 -0.12 dB -15.04 dB 6:35 09-Out in the Cold (Judas Priest cover) (Vinyl Mix)
DR13 -0.17 dB -15.61 dB 4:40 10-Dead for Another Day (Vinyl Mix)
"Svartenatt = tři sta příspěvků o ničem" Renown

Uživatelský avatar
RedBaron
Příspěvky: 178
Registrován: 11 dub 2013 16:08
Kontaktovat uživatele:
Vybavení

Re: Příšerná kvalita originálních CD

Příspěvek od RedBaron » 12 zář 2016 07:45

drfish píše:Ohledně Foo Fighters.
Dave Grohl je neuvěřitelně sebejistý svými nahrávacími schopnostmi, dokáže o tom i točit filmy a lidi mu to žerou (viz http://www.csfd.cz/film/331002-sound-city/komentare/). Zřejmě proto, že tomu nerozumí, mu vychází jedno zprasené album za druhým. Když si dám náhodné přehrávání ve své sbírce muziky, vždycky, když to začne náhle ukrutně řvát, vím, že přišli na řadu Foo Fighters. Nejnařvanější kapela co znám. A to jsem měl jejich muziku vždycky rád. :mrgreen:
Tahle nahrávka je opravdu dobrá http://dr.loudness-war.info/album/view/64275 ale zbytek opravdu škoda mluvit.

Uživatelský avatar
NIN
Příspěvky: 1163
Registrován: 30 led 2013 15:38
Kontaktovat uživatele:
Vybavení

Re: Příšerná kvalita originálních CD

Příspěvek od NIN » 06 říj 2016 14:17

Tak si musím zase postěžovat. CD Depeche Mode - Sounds of Universe. To je hudebně taková nuda, že jsem u toho myl nádobí. Jak ta elektronika dříve na obyčejném aparátu hrála nejlíp, tak jsem v současné době ještě neslyšel nahrávku s nízkým DR, která by narozdíl od jiných žánrů šla poslouchat.
Ayon+MF+Tannoy

Uživatelský avatar
lechos
Příspěvky: 3186
Registrován: 09 pro 2008 08:34
Kontaktovat uživatele:
Vybavení

Re: Příšerná kvalita originálních CD

Příspěvek od lechos » 06 říj 2016 15:42

skromná otázka běžného uživatele, nebejt DR analyzérů a hausnumer nevímnaco, vadila by Vám ta "příšerná kvalita originálních CD" ?
pioneer A-656 MK2***technics SL PG400A***pioneer PL335***
aiwa AD-F 910E***sony ST-S390***technics SH-GE 70***toshiba SD-24 VL***2 x pioneer CS-901

Uživatelský avatar
NIN
Příspěvky: 1163
Registrován: 30 led 2013 15:38
Kontaktovat uživatele:
Vybavení

Re: Příšerná kvalita originálních CD

Příspěvek od NIN » 06 říj 2016 15:59

Obávám se, že bych neustále zkoumal, proč to hraje tak jak to hraje a byl bych na tom psychicky hůř, protože bych nevěděl proč to nehraje.
Ayon+MF+Tannoy

Uživatelský avatar
lechos
Příspěvky: 3186
Registrován: 09 pro 2008 08:34
Kontaktovat uživatele:
Vybavení

Re: Příšerná kvalita originálních CD

Příspěvek od lechos » 06 říj 2016 16:07

přibližně 1/4 muziky na CD mám v proklínaném opovrhovaném formátu MP3 a spokojen jsem, jistěže, kdo chce kam pomožme mu tam
pioneer A-656 MK2***technics SL PG400A***pioneer PL335***
aiwa AD-F 910E***sony ST-S390***technics SH-GE 70***toshiba SD-24 VL***2 x pioneer CS-901

Odpovědět

Kdo je online

Uživatelé prohlížející si toto fórum: kychtax a 1 host