Progresivní Rock

Různé hudební žánry
Odpovědět
bryston
Příspěvky: 288
Registrován: 16 srp 2018 18:02
Kontaktovat uživatele:

Re: Progresivní Rock

Příspěvek od bryston »

Paul

Tak jsem to myslel.

Uživatelský avatar
PetrD
Příspěvky: 991
Registrován: 01 pro 2013 19:06
Kontaktovat uživatele:

Re: Progresivní Rock

Příspěvek od PetrD »

Všem milovníkům progresivní muziky vřele doporučuji nejnovější počin mých velmi oblíbených švédských
The FLOWER KINGS - "Waiting For Miracles".
0190759852729 – kopie.jpg
Poprvé bez klávesáka Tomase Bodina (jehož 6 skvělých alb taktéž zdobí mou sbírku), ale opět skvělé. Jistě v jejich diskografii naleznu lepší kousky, ale pro tentokrát jsem nadšen ;) Bezmála 90 minut bezva muziky na dvou CD.

Uživatelský avatar
winelover
Příspěvky: 101
Registrován: 21 lis 2009 11:26
Kontaktovat uživatele:
Vybavení

Re: Progresivní Rock

Příspěvek od winelover »

Taky se mi celkem líbí.
PS. Případně lze opatřit v 48/24 např. na highresaudio.com.
win

Uživatelský avatar
PetrD
Příspěvky: 991
Registrován: 01 pro 2013 19:06
Kontaktovat uživatele:

Re: Progresivní Rock

Příspěvek od PetrD »

1.CD -> *****
2.CD -> ****

Uživatelský avatar
PetrD
Příspěvky: 991
Registrován: 01 pro 2013 19:06
Kontaktovat uživatele:

Re: Progresivní Rock

Příspěvek od PetrD »

Jednoduše řečeno . . . nádhera *thumbs up*
Kopie č. - DCS_out.jpg
"Thieves’ Kitchen - Genius Loci"

Sestava hovoří za vše:
Amy Darby - vocals
Phil Mercy - guitars
Thomas Johnson (ex-Änglagård) - keyboards
With:
Johan Brand (Änglagård) - bass
Anna Holmgren (Änglagård) - flute
Paul Mallyon (ex-Sanguine Hum) - drums

. . . a famózní zvuk (pak, že to nejde ;) )

foobar2000 1.2.9 / Dynamic Range Meter 1.1.1
log date: 2019-11-17 20:21:26
Analyzed: Thieves' Kitchen / Genius Loci
DR Peak RMS Duration Track
--------------------------------------------------------------------------------
DR15 -0.05 dB -17.10 dB 9:33 01-Eilmer
DR15 -0.48 dB -18.84 dB 11:35 02-Uffington
DR12 -9.26 dB -26.88 dB 3:50 03-The Poison Garden
DR14 -0.05 dB -18.00 dB 20:06 04-The Voice of the Lar
DR15 -2.43 dB -20.67 dB 8:52 05-Mirie It Is

--------------------------------------------------------------------------------
Number of tracks: 5
Official DR value: DR14



Pro mě osobně -> jejich nejlepší album.

Uživatelský avatar
Leony5
Příspěvky: 993
Registrován: 10 bře 2014 19:55
Kontaktovat uživatele:
Vybavení

Re: Progresivní Rock

Příspěvek od Leony5 »

SoundDiary.
sounddiary_2019.jpg
Kapela z Rakouska, určitě stojí za poslech

Uživatelský avatar
Ramones
Příspěvky: 1551
Registrován: 19 zář 2009 19:05
Kontaktovat uživatele:

Re: Progresivní Rock

Příspěvek od Ramones »

Petr D:
To by se ti mohly líbit také od kapely "Blood Ceremony" alba Lord of Mirsule případně The Eldritch Dark.

Uživatelský avatar
Leony5
Příspěvky: 993
Registrován: 10 bře 2014 19:55
Kontaktovat uživatele:
Vybavení

Re: Progresivní Rock

Příspěvek od Leony5 »

IQ - The Road of Bones
IQ-The-Road-of-Bones_1006636_100.jpg

Uživatelský avatar
PetrD
Příspěvky: 991
Registrován: 01 pro 2013 19:06
Kontaktovat uživatele:

Re: Progresivní Rock

Příspěvek od PetrD »

Leony5 píše:Posloucháte někdo Pallas ? Mám je moc rád.
Reaguji na tebe více jak po roce . . . Právě jsem doposlechl jejich poslední počin . . .
cover_17331829112019_r.jpg
. . . a zkompletoval si je. Vynikající album. V tuto chvíli je to přesně ta poloha, kterou můžu :)

Uživatelský avatar
Leony5
Příspěvky: 993
Registrován: 10 bře 2014 19:55
Kontaktovat uživatele:
Vybavení

Re: Progresivní Rock

Příspěvek od Leony5 »

*palec* Za mě, zajímavá progres kapela, tu poslední desku nemám :( ale opatřím si ji.

Uživatelský avatar
Leony5
Příspěvky: 993
Registrován: 10 bře 2014 19:55
Kontaktovat uživatele:
Vybavení

Re: Progresivní Rock

Příspěvek od Leony5 »

Také velice dobrá prog kapela
colors_2019.jpg

Uživatelský avatar
Leony5
Příspěvky: 993
Registrován: 10 bře 2014 19:55
Kontaktovat uživatele:
Vybavení

Re: Progresivní Rock

Příspěvek od Leony5 »

Poslední dobou jsem se dostal k remasterovaným Pendragon, např. toto je z r. 2005 a zní mi lépe než původní album
Cover.jpg

Uživatelský avatar
Leony5
Příspěvky: 993
Registrován: 10 bře 2014 19:55
Kontaktovat uživatele:
Vybavení

Re: Progresivní Rock

Příspěvek od Leony5 »

Remaster z roku 2002
Přílohy
Front.jpg
Cover.jpg

Uživatelský avatar
Leony5
Příspěvky: 993
Registrován: 10 bře 2014 19:55
Kontaktovat uživatele:
Vybavení

Re: Progresivní Rock

Příspěvek od Leony5 »

Na toto jsem narazil náhodou, je to docela pěkný mazec.
kui_2020.jpg

Uživatelský avatar
Antony
Příspěvky: 1733
Registrován: 28 čer 2014 19:13
Kontaktovat uživatele:
Vybavení

Re: Progresivní Rock

Příspěvek od Antony »

Pendragon - The Jewell
První CD edice (1991) - DR13
Remaster 2005 - DR7

Jo, to zní fak "vylepšeně". Úplnej tuzing....

Odpovědět

Kdo je online

Uživatelé prohlížející si toto fórum: Žádní registrovaní uživatelé a 1 host