Led Zeppelin

Diskuse a fun kluby jednotlivých muzikantů, kapel atd. Jejich historie, koncerty a drby kolem.
Odpovědět
jfed
Příspěvky: 82
Registrován: 24 úno 2011 16:38
Kontaktovat uživatele:

Re: Led Zeppelin

Příspěvek od jfed »

No tak když to musí být česky, tak třeba zde jsou odkazy na české obchody:
http://www.heureka.cz/?h%5Bfraze%5D=led ... =&max=&o=3

http://superstarshop.cz/obchod.php?prod ... collection
http://superstarshop.cz/obchod.php?prod ... collection (právě toto bude asi Japan, podle roku vydání a vyšší ceny)

případně zkusit oslovit tohoto prodejce, jestli mu to někde doma nezůstalo, když se to v aukci (před rokem) neprodalo:
http://archiv.aukro.cz/led-zeppelin-def ... 3673013776

Otázka je, jestli z toho bude mít nastávající 50ník opravdu tak velkou radost, pokud je do LZ takovej fanda, tak jistě všechna ta LP/CD/BR už má. Možná by ho víc než ta CD krabice potěšil lístek na koncert do Brna ...

Uživatelský avatar
Karel1
Příspěvky: 304
Registrován: 05 led 2015 13:24
Kontaktovat uživatele:
Vybavení

Re: Led Zeppelin

Příspěvek od Karel1 »

Otázka je....To tu neřešme. Jeho žena mě požádala, tak jsem se tu optal. Mě je jedno, jestli mu nadělí tento BOX nebo cokoli jiného.
PS: a lístky na Planta má.

Uživatelský avatar
PetrD
Příspěvky: 853
Registrován: 01 pro 2013 19:06
Kontaktovat uživatele:

Re: Led Zeppelin

Příspěvek od PetrD »

jfed píše: . . . Otázka je, jestli z toho bude mít nastávající 50ník opravdu tak velkou radost, pokud je do LZ takovej fanda, tak jistě všechna ta LP/CD/BR už má. Možná by ho víc než ta CD krabice potěšil lístek na koncert do Brna ...
Nevím, jak velký fanda dotyčný je, ale opravdovému fandovi a sběrateli, udělá radost vše, co ještě nemá. Zde pár foteček, co si představuji pod pojmem fanda a "sběratel" Led Zeppelin ;)

Obrázek
Obrázek
Obrázek

. . . no a je-li to opravdový FANDA, nakonec se přestěhuje sem ;)
Obrázek

Uživatelský avatar
lidumil
Příspěvky: 1275
Registrován: 04 dub 2011 21:02
Kontaktovat uživatele:
Vybavení

Re: Led Zeppelin

Příspěvek od lidumil »

Karel1 píše:odkazy na ebay mě moc nepomůžou, nejsem tam registrovaný, jazyky neovládám atd. Poptal jsem se tady jen tak, jestli někdo neví, kde v Čechách ;)
Tak není problém to objednat, řada z nás tam registrována je. To, že to mají ještě na cdjapan, jsem netušil. Jinak DPH se platí nad 22 E, clo nad 150 E. No ale právě z CDjapan to posílají jako GIFT.

Uživatelský avatar
Karel1
Příspěvky: 304
Registrován: 05 led 2015 13:24
Kontaktovat uživatele:
Vybavení

Re: Led Zeppelin

Příspěvek od Karel1 »

Děkuji všem ochotným. Veškeré odkazy jsem předal.

Uživatelský avatar
fox
Příspěvky: 2127
Registrován: 07 črc 2008 10:03
Kontaktovat uživatele:
Vybavení

Re: Led Zeppelin

Příspěvek od fox »

lidumil píše:
Karel1 píše:odkazy na ebay mě moc nepomůžou, nejsem tam registrovaný, jazyky neovládám atd. Poptal jsem se tady jen tak, jestli někdo neví, kde v Čechách ;)
Tak není problém to objednat, řada z nás tam registrována je. To, že to mají ještě na cdjapan, jsem netušil. Jinak DPH se platí nad 22 E, clo nad 150 E. No ale právě z CDjapan to posílají jako GIFT.
Z CD Japan to sice posílají jako GIFT, ale naší celníci nejsou hloupí. Nedávno jsem si tam koupil SACD za 28 dolarů, zaplatil jsem čtyři stovky DPH + poplatek poště za vyřízení. *headbang*

Uživatelský avatar
lechos
Příspěvky: 4439
Registrován: 09 pro 2008 08:34
Kontaktovat uživatele:
Vybavení

Re: Led Zeppelin

Příspěvek od lechos »

Zeppelin
Obrázek

Lechosi
:evil: *taktone*

Uživatelský avatar
PetrD
Příspěvky: 853
Registrován: 01 pro 2013 19:06
Kontaktovat uživatele:

Re: Led Zeppelin

Příspěvek od PetrD »

"Phoenix-Zeppelin spol. s r.o. - výhradní partner firmy Caterpillar"
(stavební stroje, energetické systémy, zemědělská technika, použité stroje se zárukou, manipulační technika, servisní služby, náhradní díly, půjčovna, pronájem strojů . . .)

Ukázka toho, jak se zapleveluje vlákno o jedné z nejvýznamnější a nejslavnější rockové kapele všech dob :?

Uživatelský avatar
PetrD
Příspěvky: 853
Registrován: 01 pro 2013 19:06
Kontaktovat uživatele:

Re: Led Zeppelin

Příspěvek od PetrD »

Led Zeppelin - Physical Graffiti / Remaster 2015 / 3CD
Obrázek

Tak už je to doma ;) Zatím jen sluchátkový poslech, ženuška ochořela, tož jí dopřávám klid ;) Zatím dobrý . . . :)
Docela by mě zajímalo, kdo zas vymyslel ten debilní rozměr obalu :shock:

boxer

Re: Led Zeppelin

Příspěvek od boxer »

Mohl bys zjistit DR u prvních dvou CD?

Uživatelský avatar
PetrD
Příspěvky: 853
Registrován: 01 pro 2013 19:06
Kontaktovat uživatele:

Re: Led Zeppelin

Příspěvek od PetrD »

CD one: 9,10,10,10,9,10
CD two: 10,10,11,11,10,10,10,11,10

Porovnal jsem s CD 92442-2 (Swan Song, 1994,USA). . .
CD one: 11,10,11,10,10,11
CD two: 12,11,11,11,11,11,11,14,10

Uživatelský avatar
PetrD
Příspěvky: 853
Registrován: 01 pro 2013 19:06
Kontaktovat uživatele:

Re: Led Zeppelin

Příspěvek od PetrD »

Nejvyšší DR má "Black Country Woman" z CD 92442-2 (1994)

foobar2000 1.2.9 / Dynamic Range Meter 1.1.1
log date: 2015-02-21 14:41:13
--------------------------------------------------------------------------------
Statistics for: 08-CD Track 08
Number of samples: 12039300
Duration: 4:33
--------------------------------------------------------------------------------
Left / Right
Peak Value: 0.00 dB --- 0.00 dB
Avg RMS: -17.43 dB --- -16.40 dB
DR channel: 13.88 dB --- 13.19 dB
--------------------------------------------------------------------------------

Official DR Value: DR14

Samplerate: 44100 Hz
Channels: 2
Bits per sample: 16
Bitrate: 1411 kbps
Codec: CDDA

Uživatelský avatar
PetrD
Příspěvky: 853
Registrován: 01 pro 2013 19:06
Kontaktovat uživatele:

Re: Led Zeppelin

Příspěvek od PetrD »

A když už jsem u PC (obývák je obsazen marodem, tož aparátek odpočívá), projel jsem i Disc 3 (The Companion Disc) . . .

foobar2000 1.2.9 / Dynamic Range Meter 1.1.1
log date: 2015-02-21 15:05:44
--------------------------------------------------------------------------------
Analyzed: Led Zeppelin / Physical Graffiti
--------------------------------------------------------------------------------
DR Peak RMS Duration Track
--------------------------------------------------------------------------------
DR10 -0.20 dB -11.41 dB 5:39 01-Brandy & Coke (Trampled Under Foot) - Led Zeppelin
DR10 -0.28 dB -12.59 dB 2:23 02-Sick Again - Led Zeppelin
DR10 -0.14 dB -12.18 dB 10:48 03-In My Time of Dying - Led Zeppelin
DR10 -0.28 dB -11.95 dB 3:52 04-Houses of The Holy - Led Zeppelin
DR11 -0.06 dB -13.98 dB 6:29 05-Everybody Makes It Through (In The Light) - Led Zeppelin
DR10 -0.31 dB -11.93 dB 3:40 06-Boogie With Stu - Led Zeppelin
DR10 -0.28 dB -12.79 dB 8:41 07-Driving Through Kashmir - Led Zeppelin
--------------------------------------------------------------------------------
Number of tracks: 7
Official DR value: DR10

Samplerate: 44100 Hz
Channels: 2
Bits per sample: 16
Bitrate: 1411 kbps
Codec: CDDA
================================================================================

Uživatelský avatar
PetrD
Příspěvky: 853
Registrován: 01 pro 2013 19:06
Kontaktovat uživatele:

Re: Led Zeppelin

Příspěvek od PetrD »

Obrázek

A takhle vypadá ten "šikovný" rozměr :?

Uživatelský avatar
MB
Příspěvky: 1113
Registrován: 17 dub 2008 13:33
Kontaktovat uživatele:
Vybavení

Re: Led Zeppelin

Příspěvek od MB »

Fakt pokrok...

http://dr.loudness-war.info/album/view/65277
http://dr.loudness-war.info/album/view/65278

Toto vydanie mam doma a za žiaden "remaster" by som ho nevymenil.

Odpovědět

Kdo je online

Uživatelé prohlížející si toto fórum: Žádní registrovaní uživatelé a 1 host