The Flower Kings

Diskuse a fun kluby jednotlivých muzikantů, kapel atd. Jejich historie, koncerty a drby kolem.
Odpovědět
Uživatelský avatar
pininfarino
Příspěvky: 90
Registrován: 23 lis 2009 23:43
Kontaktovat uživatele:

The Flower Kings

Příspěvek od pininfarino »

Nikde som tu nenašiel samostatné vlákno na túto fenomenálnu kapelu. A keďže u mňa (spolu s Arenou) The Flower Kings patrí jednoznačne medzi TOP , dovolím si túto tému otvoriť.
Niekomu sa počúvanie ich hudby môže zdať náročné. Počul som aj také hodnotenia. Pre mňa je počúvanie The Flower Kings vrcholom, extázou, a dopriavam si ho len v určitých výnimočných situáciách... No a tiež si myslím, že pre všetkých tých, ktorí prešli kapelami ako Jethro Tull, Pink Floyd, Zeppelin, Yes, Genesis, F. Zappa, King Crimson a pod., by malo byť počúvanie tohoto zoskupenia takmer povinné.
Žáner, ktorý The Flower Kings hrajú sa radí medzi progressive rock, alebo tiež neoprogres. Vznik kapely sa datuje do r. 1994, a jej zloženie nie je úplne stabilné. Jadrom však zostávajú členovia: Roine Stolt - Guitars, Vocals, Tomas Bodin - Keyboards, Jonas Reingold – bass, Hasse Fröberg – Vocals, guitars, Marcus Liliequist / Zoltan Csorsz- Drumkit, Hasse Bruniusson - Acoustic & Electric percussion.
V tejto základnej zostave vydali nasledovné dosky :
Back In The World of Adventures
Retropolis
Stardust We Are
Flower Power
Space Revolver
The Rainmaker
Unfold The Future
Paradox Hotel
Adam & Eve
The Sum of no Evil
A ako to znie? Hudba je živá, nápaditá, plná odbočiek a zvratov. Akoby hudobníci odkukali od hore uvedených kapiel to najušľachtilejšie a odovzdali nám nedočkavým poslucháčom v celkom novej , ešte vycibrenejšej podobe.. Napriek klamivému zdaniu, že hudba je ťažká a neprehľadná, opak je pravdou. Ich hudba je uvoľňujúca, svieža, poučná, plná emócií ale i skrytého humoru - no a mňa osobne privádza až ku bráne vesmírnej dokonalosti. Ak zhrniem prvých 6 albumov, je až nepochopiteľné kde hudobníci všetky tie myšlienky nabrali. Posledné 3 albumy (aspoň teda z môjho pohľadu) už nedosahujú tú neskutočnú 10.00 bodovú úroveň, ale vždy ešte ide o výborné veci... A pre nás HIFI-filov určite nie zanedbateľná je tá informácia, že nahrávky sú na veľmi vysokej kvalitatívnej úrovni..
Ďalej je pozoruhodné tiež to, že aj napriek naozaj vysokej náročnosti ich hudby jednotliví hudobníci – akoby im nestačilo, hosťujú a vytvárajú rôzne ďalšie útvary. A aj výsledkom týchto spoluprác sú úžasné hudobné klenoty! Spomeniem tu ako príklad niekoľko zoskupení: Transatlantic, Kaipa, Tangent, Karmakanic (!),Roine Stolt (!),Tomas Bodin (!!)
Čo napísať na koniec po toľkých oslavných vetách? Mohlo by sa zdať, že The Flower Kings ani nejaký ten nedostatok nemajú... Ale veru majú! ..... Totiž každý kto si navykne na The Flower Kings, už automaticky postaví laťku kvality o 2 stupne vyššie. A automaticky všetko to, čo bolo predtým, je o 2 stupne nižšie. A im rovný sa hľadá veru veľmi veľmi ťažko..

Uživatelský avatar
Zappadaddy
Příspěvky: 1630
Registrován: 17 dub 2008 16:16
Kontaktovat uživatele:

Re: The Flower Kings

Příspěvek od Zappadaddy »

No vítám zde nového progresivistu. *thumbs up* Bohužel Flower Kings pro mne neznamenali to co ti výše uvedeny legendy.Flower Kings jsou na můj vkus trochu nudní,vyžívají se v dlouhých a příliš nezaživných kompozicích,v kterých se snaží oslnit svojí bravurní technickou kvalitou a přehršlí zbytečných sól,tak trochu onanie.Možná nejsem vyspělý posluchač progu,možná jsem jen zaujatý proti neoprogu jako takový.Schází mi tam ta lehkost bytí,více nápadů a invence.Pouze jeden z názorů,který nakonec neznamená nic.Každý si udělá svůj obrázek,líbí nelíbí.

Uživatelský avatar
pininfarino
Příspěvky: 90
Registrován: 23 lis 2009 23:43
Kontaktovat uživatele:

Re: The Flower Kings

Příspěvek od pininfarino »

Zappadaddy jasné. Nemusí sa všetkým páčiť to isté. Napokon, spomínam si, že keď sme v CD-predajni asi pred 10.rokmi s bráchom prvý krát počúvali túto formáciu, tiež som si nebol moc istý... Je to hudba, ktorá predbehla svoju dobu a treba jej najprv prísť na chuť. Potom to ale stojí za to!
Je tu ešte niekdo, kto fandí tejto kapele?

Uživatelský avatar
pininfarino
Příspěvky: 90
Registrován: 23 lis 2009 23:43
Kontaktovat uživatele:

Re: The Flower Kings

Příspěvek od pininfarino »

Radostná správa !!!
Tento rok THE FLOWER KINGS zavítajú opäť /po nejakých ôsmich rokoch/ na naše malé Slovensko. Síce kapela po šiestej štúdiovej doske permanentne udržiava miernejšie nasadenie, stále je to kapela, ktorá sa radí medzi TOP.
A aj keď už lístok s poradovým číslom 01 nezoženiete /ten mám ja/ rozhodne neriskujte a utekajte si nejaký zakúpiť, kým je čas !

Uživatelský avatar
Karel1
Příspěvky: 304
Registrován: 05 led 2015 13:24
Kontaktovat uživatele:
Vybavení

Re: The Flower Kings

Příspěvek od Karel1 »

Dnes vyšlo nové album THE FLOWER KINGS - Islands *hura*
cover_29597292020_r.jpg
Krásně se poslouchá :)


Analyzed: The Flower Kings - Islands / CD one
DR Peak RMS Duration Track
--------------------------------------------------------------------------------
DR12 -1.84 dB -16.45 dB 4:33 01-Racing with Blinders On
DR12 -0.04 dB -14.83 dB 4:11 02-From the Ground
DR12 -0.09 dB -14.86 dB 5:58 03-Black Swan
DR12 -1.80 dB -17.52 dB 4:06 04-Morning News
DR12 -0.10 dB -15.78 dB 6:48 05-Broken
DR11 -4.08 dB -19.83 dB 2:25 06-Goodbye Outrage
DR13 -0.23 dB -16.57 dB 1:49 07-Journeyman
DR14 -0.11 dB -17.32 dB 4:13 08-Tangerine
DR12 -0.03 dB -16.25 dB 9:32 09-Solaris
DR12 -0.13 dB -15.56 dB 4:42 10-Heart of the Valley
DR12 -0.03 dB -15.35 dB 3:29 11-Man in a Two Peace Suit
Number of tracks: 11
Official DR value: DR12

Analyzed: The Flower Kings - Islands / CD two
DR Peak RMS Duration Track
--------------------------------------------------------------------------------
DR12 -1.30 dB -16.07 dB 5:54 01-All I Need Is Love
DR12 -0.09 dB -16.58 dB 5:56 02-A New Species
DR13 -0.47 dB -16.15 dB 5:45 03-Northern Lights
DR12 0.00 dB -15.17 dB 0:52 04-Hidden Angles
DR12 -0.81 dB -15.41 dB 3:53 05-Serpentine
DR12 -1.10 dB -16.25 dB 4:47 06-Looking for Answers
DR13 -0.54 dB -16.50 dB 4:52 07-Telescope
DR12 -1.90 dB -15.45 dB 3:18 08-Fool's Gold
DR12 -1.11 dB -17.86 dB 4:42 09-Between Hope & Fear
DR12 -0.09 dB -15.96 dB 4:15 10-Islands
Number of tracks: 10
Official DR value: DR12

Samplerate: 96000 Hz
Channels: 2
Bits per sample: 24
Bitrate: 2533 kbps
Codec: FLAC


Roine Stolt o koncepční nahrávce prozradil následující: "Tématem alba je izolace - název "Islands" se tedy jevil jako nejpříhodnější titul - protože většina z toho se pohybuje kolem izolace, ztráty a strachu z odpojení. To, že jsme museli čelit této neočekávané pandemii, zanechá na každém z nás stopy po velmi dlouhou dobu a ztráta blízkých nás nutí pokračovat v boji, učit se a růst v silnější verzi sebe sama v tomto křehkém cyklu života. Hudebně bylo cílem vytvořit větší velkolepou skladbu z 21 písní - takže jsou všechny spojeny s tématy, která se prolínají a odkrývají - jako způsob, kterým byly "Sgt. Peppers" nebo "The Lamb" postaveny na kratších písních, ale přesto propojeny. Nahlížejte na album tedy jako jednu mega píseň nebo jako 21 samostatných skladeb, vše je přizpůsobené k poslechu jako jeden díl - jako filmová jízda dlouhá cca 90 minut".

"Všechny koncerty a festivaly byly zrušeny a budoucnost se ve "skutečnosti" neodvíjela tak, jak jsme doufali", vysvětluje kytarista Roine Stolt. "Sedět při pandemii bez aktivit pro nás nebylo možné! Nemůže nás zastavit zlý virus! Takže se členy žijícími v USA, Itálii, Rakousku a Švédsku, byl jediným způsobem, jak realizovat toto album, použít kouzlo "sítě", posílat soubory po celém světě a začít budovat to, co se nyní stalo svojí mamutí velikostí dvojitým albem s 21 písněmi".

Odpovědět

Kdo je online

Uživatelé prohlížející si toto fórum: Žádní registrovaní uživatelé a 1 host