Nordland

Představení jednotlivých členů fóra, jejich aparatur, oblíbené muziky atd.
Zamčeno
whisp
Příspěvky: 95
Registrován: 02 dub 2015 20:19
Kontaktovat uživatele:
Vybavení

Re: Nordland

Příspěvek od whisp »

V porovnani s mojim (v ramci moznosti zo zverejnenej fotky):
iny oplet
DBS ma ine uchyty a iny plast
ine konektory (robili sa s dvoma typmi ale toto je uplne ine)
Naposledy upravil(a) whisp dne 09 pro 2017 10:02, celkem upraveno 1 x.

Uživatelský avatar
PavelDosko
Příspěvky: 1660
Registrován: 08 úno 2011 13:06
Kontaktovat uživatele:
Vybavení

Re: Nordland

Příspěvek od PavelDosko »

a co zustalo doma ? ja uz repro kabely tak nejak ... neresim, i kdyz tak kombinace co mam ted doma by nejednomu privodila bolest zubu uz od pohledu :-)

Uživatelský avatar
nordland88
Příspěvky: 95
Registrován: 22 říj 2017 00:20
Kontaktovat uživatele:

Re: Nordland

Příspěvek od nordland88 »

Furutech

Uživatelský avatar
nordland88
Příspěvky: 95
Registrován: 22 říj 2017 00:20
Kontaktovat uživatele:

Re: Nordland

Příspěvek od nordland88 »

Tohle není pro každého, ale dynamické špičky jsou pěkně brutální. *2thumbsup*

Obrázek

Obrázek

Analyzed: Luigi Nono / Nono- Orchestral Works & Chamber Music
--------------------------------------------------------------------------------

DR Peak RMS Duration Track
--------------------------------------------------------------------------------
DR16 -0.10 dB -29.60 dB 12:08 01-Due Esspressioni (1953)
DR21 -0.80 dB -30.58 dB 10:05 02-A Carlo Scarpa, Architetto, Ai Suoi Infiniti Possibili Per Orchestra In Micro...
DR22 -2.34 dB -32.07 dB 27:15 03-Fragmente - Stille, An Diotima (1979-1980) For String Quartet
DR16 -5.12 dB -28.19 dB 13:18 04-Post-Prae-Ludium For Tuba And Electronics
Naposledy upravil(a) nordland88 dne 10 pro 2017 15:13, celkem upraveno 1 x.

Uživatelský avatar
LawIAR
Příspěvky: 698
Registrován: 09 kvě 2016 22:15
Kontaktovat uživatele:

Re: Nordland

Příspěvek od LawIAR »

Ta rozlišovacia schopnosť a zvuková pamäť je fenomenálna. Vždy ostanem s takou malou dušičkou, že toľko rozdielov neviem zaznamenať ani pri porovnaní elektroniky, nie to ešte káblov.

Odar
Příspěvky: 1821
Registrován: 12 úno 2010 10:44

Re: Nordland

Příspěvek od Odar »

Lebo nepouzivas najlepsi merak na svete - svoje usi :mrgreen:

Uživatelský avatar
nordland88
Příspěvky: 95
Registrován: 22 říj 2017 00:20
Kontaktovat uživatele:

Re: Nordland

Příspěvek od nordland88 »

Myslím že na tom fenomenálního nic není, když máš aparát naposlouchaný zhruba dva roky a skladby ještě déle tak ty rozdíly jsou dobře slyšitelné. Nuance ve zvuku jsem vůbec neřešil, na to jsou jiné kapacity zde na fóru.

Uživatelský avatar
LawIAR
Příspěvky: 698
Registrován: 09 kvě 2016 22:15
Kontaktovat uživatele:

Re: Nordland

Příspěvek od LawIAR »

nuž, proti gustu žiaden dišputát!

Nech ti to hraje.

Uživatelský avatar
Jiri
Příspěvky: 981
Registrován: 12 říj 2008 22:36
Kontaktovat uživatele:
Vybavení

Re: Nordland

Příspěvek od Jiri »

nordland: máš zajímavou poslechovou místnost. Prosím z jakého materiálu sis vyráběl ty své difuzory? Polystyren, dřevo?

Uživatelský avatar
lachim
Příspěvky: 2257
Registrován: 17 dub 2008 18:43
Kontaktovat uživatele:

Re: Nordland

Příspěvek od lachim »

Nordland
Vypadá to bajecne! Díky za skvěle vlákno. Takové fotky vždy potěší.
Jen ten Fejk repro kabelu audioquest ti to kazi.
U tebe bych to chtěl vidět na živo!

Uživatelský avatar
nordland88
Příspěvky: 95
Registrován: 22 říj 2017 00:20
Kontaktovat uživatele:

Re: Nordland

Příspěvek od nordland88 »

Díky.
Difuzéry jsou EPS polystyren. Je v plánu všechny dělat znovu ale ze dřeva, i na stropě, možná za rok. Zatím má přednost sestava a její upgrade.

Uživatelský avatar
jirie
Příspěvky: 768
Registrován: 03 pro 2008 11:35
Kontaktovat uživatele:

Re: Nordland

Příspěvek od jirie »

Ty tvé difuzery jsou úžasné.
Jako materiál jsi zmínil extrudovaný polystyren.
Pokud to není tvé know how, čím jsi desky zpracovával a čím je difuzer nabarven a jak?
Díky

Uživatelský avatar
kutilka
Příspěvky: 100
Registrován: 03 črc 2015 13:27
Kontaktovat uživatele:

Re: Nordland

Příspěvek od kutilka »

EPS polystyren je běžný pěnový polystyren.
http://www.tepelna-izolace.cz/polystyre ... vnani.html

Uživatelský avatar
koudelka
Příspěvky: 373
Registrován: 11 led 2010 09:49
Kontaktovat uživatele:
Vybavení

Re: Nordland

Příspěvek od koudelka »

Hezká sestava a příkladný přístup *thumbs up* *palec*

Uživatelský avatar
jirie
Příspěvky: 768
Registrován: 03 pro 2008 11:35
Kontaktovat uživatele:

Re: Nordland

Příspěvek od jirie »

Eeee....., tak to jsem si špatně vyložil tu zkratku. Nicméně dotaz k výrobě a barvení zůstává :|

Zamčeno

Kdo je online

Uživatelé prohlížející si toto fórum: Žádní registrovaní uživatelé a 1 host