CD TOOL - Lateralus

Dotazy a žádosti o radu co nakoupit, vylepšit, změnit ve vašich sestavách, ...
Odpovědět
Renda70
Příspěvky: 8
Registrován: 28 lis 2014 19:59
Kontaktovat uživatele:

CD TOOL - Lateralus

Příspěvek od Renda70 »

Mohl by mi někdo poradit při koupi tohoto CD?
V nabídce je od vydavatelství Volcano (EAN 0614223116020, import USA) za 675 Kč, vydavatelství Jive (EAN 0828765364522, import EU) za 560 Kč, nebo vydavatel Sony (EAN stejný, jako u JIVE, 0828765364522) za 280 Kč. Platí, že nejdražší Volcano je nejlepší? Cédéčka kupuji vyjímečně, proto bych se nechtěl unáhlit. Rozumí tomu někdo? Je v kvalitě nahrávky takový rozdíl, jako je v ceně, nebo je Volcano dražší, protože je to import USA, ale kvalitou obdobné? Je-li u vydavatele Jive (existuje ještě?) a Sony stejný EAN, jsou pod jednou střechou a nemá cenu kupovat to dražší? Poraďte tupcovi.

Uživatelský avatar
PítrsPraha
Příspěvky: 3816
Registrován: 05 pro 2013 10:13
Kontaktovat uživatele:
Vybavení

Re: CD TOOL - Lateralus

Příspěvek od PítrsPraha »

Ono je těch vydání deskyještě kapku víc: http://www.discogs.com/Tool-Lateralus/master/1517

Při koupi bych se zaměřil na původní vydání z r. 2001, zvukově bude s největší pravděpodobností lepší než pozdější reedice. Proto se i liší ceny, nejspíš to budou různá vydání.

Renda70
Příspěvky: 8
Registrován: 28 lis 2014 19:59
Kontaktovat uživatele:

Re: CD TOOL - Lateralus

Příspěvek od Renda70 »

Je mi jasné, že jich je víc, jen jsem zmínil to, co jsem našel v nabídkách (třeba na na Audio3). Takže Volcano z r.2001, které tam je za 675Kč bude asi nejlepší volba?

Uživatelský avatar
PítrsPraha
Příspěvky: 3816
Registrován: 05 pro 2013 10:13
Kontaktovat uživatele:
Vybavení

Re: CD TOOL - Lateralus

Příspěvek od PítrsPraha »

Řekl bych, že ano. US verze s EANem 614223116020 a evropská verze s EANem 638592101326 se zdají být originální vydání. Zvukově to bude lehký nadprůměr: http://dr.loudness-war.info/album/view/1175

Uživatelský avatar
Strejdin
Příspěvky: 387
Registrován: 21 zář 2016 14:19
Kontaktovat uživatele:
Vybavení

Re: CD TOOL - Lateralus

Příspěvek od Strejdin »

Ahoj, nemáte někdo DR měření edice z roku 2006, např. (Ean 0828765364522) ? Nebo neví někdo zda je to stejné zvukové vydání jako z roku 2001? Nerad bych si objednal nějakou zmršeninu původního vydání a na dr. loudness bohužel není. Předem díky za info.

Uživatelský avatar
PetrD
Příspěvky: 852
Registrován: 01 pro 2013 19:06
Kontaktovat uživatele:

Re: CD TOOL - Lateralus

Příspěvek od PetrD »

foobar2000 1.2.9 / Dynamic Range Meter 1.1.1
log date: 2021-01-03 19:21:35
--------------------------------------------------------------------------------
Analyzed: Tool / Lateralus
--------------------------------------------------------------------------------
DR Peak RMS Duration Track
--------------------------------------------------------------------------------
DR9 0.00 dB -11.07 dB 8:36 01-The Grudge
DR17 -7.46 dB -29.64 dB 1:05 02-Eon Blue Apocalypse
DR9 -0.10 dB -12.60 dB 7:14 03-The Patient
DR11 -8.61 dB -22.80 dB 1:13 04-Mantra
DR9 -0.10 dB -11.81 dB 6:48 05-Schism
DR9 -2.76 dB -21.76 dB 3:04 06-Parabol
DR9 -0.10 dB -10.85 dB 6:04 07-Parabola
DR9 -0.10 dB -11.81 dB 8:10 08-Ticks & Leeches
DR8 -0.10 dB -11.11 dB 9:24 09-Lateralus
DR12 -2.52 dB -18.67 dB 4:46 10-Disposition
DR10 -0.10 dB -12.22 dB 11:08 11-Reflection
DR9 -0.10 dB -12.59 dB 8:47 12-Triad
DR10 0.00 dB -14.28 dB 2:39 13-Faaip De Oiad
--------------------------------------------------------------------------------
Number of tracks: 13
Official DR value: DR10

Samplerate: 44100 Hz
Channels: 2
Bits per sample: 16
Bitrate: 1411 kbps

Uživatelský avatar
Strejdin
Příspěvky: 387
Registrován: 21 zář 2016 14:19
Kontaktovat uživatele:
Vybavení

Re: CD TOOL - Lateralus

Příspěvek od Strejdin »

Super , moc díky 👍.

Odpovědět

Kdo je online

Uživatelé prohlížející si toto fórum: Žádní registrovaní uživatelé a 2 hosti