Příšerná kvalita originálních CD

CD, SACD, HDCD, DVD, DVDAudio, BluRay, streamovaní, formáty, média, online služby, playery, digitální knižnice a vše kolem digitálu
Odpovědět
Uživatelský avatar
PítrsPraha
Příspěvky: 3881
Registrován: 05 pro 2013 10:13
Kontaktovat uživatele:
Vybavení

Re: Příšerná kvalita originálních CD

Příspěvek od PítrsPraha »

No pokud nemáme uši ani aparát spadající alespoň do low-end hifi tak nevíme. Jinak víme velmi dobře, bohužel...

Uživatelský avatar
lechos
Příspěvky: 4382
Registrován: 09 pro 2008 08:34
Kontaktovat uživatele:
Vybavení

Re: Příšerná kvalita originálních CD

Příspěvek od lechos »

to je to samý jak spešl repro kabel za stokoruny nebo šňůra ze starého vysavače třeba, kdo slyší rozdíl je hudební génius ale, bohužel věčně nespokojený, no nic proti gustu, že jo

FS
Příspěvky: 999
Registrován: 29 říj 2016 00:30
Kontaktovat uživatele:
Vybavení

Re: Příšerná kvalita originálních CD

Příspěvek od FS »

to je to samý jak spešl repro kabel za stokoruny nebo šňůra ze starého vysavače třeba, kdo slyší rozdíl je hudební génius ale, bohužel věčně nespokojený, no nic proti gustu, že jo
Potom, minimálně v mém okolí, se pohybuje drtivá většina lidí spadajících do kategórie "hudební génius".

.. asi bude něco pravdy na tom, že co Čech, to muzikant :D

Uživatelský avatar
PítrsPraha
Příspěvky: 3881
Registrován: 05 pro 2013 10:13
Kontaktovat uživatele:
Vybavení

Re: Příšerná kvalita originálních CD

Příspěvek od PítrsPraha »

FS:
*2thumbsup*

lechos:
Princip podle sebe soudím tebe prostě nefunguje ani v hifi ;-).

Uživatelský avatar
PetrD
Příspěvky: 853
Registrován: 01 pro 2013 19:06
Kontaktovat uživatele:

Re: Příšerná kvalita originálních CD

Příspěvek od PetrD »

Chlapi, na Lechose nemá cenu reagovat, stejně je to Troll ;)

Uživatelský avatar
crommelin
Příspěvky: 51
Registrován: 12 zář 2017 18:58
Kontaktovat uživatele:

Re: Příšerná kvalita originálních CD

Příspěvek od crommelin »

Máš pravdu, že na někoho není třeba reagovat.

Nicméně poslední Lechosova ejakulace by v lecčem vysvětlovala jeho mnoho minulých XXXX poznámek.

Uživatelský avatar
Karel1
Příspěvky: 304
Registrován: 05 led 2015 13:24
Kontaktovat uživatele:
Vybavení

Re: Příšerná kvalita originálních CD

Příspěvek od Karel1 »

lechos píše:
23 říj 2017 07:41
může být...ale nebejt těch DR analýz tak to možná ani nevíme
Lechosi, zvu tě k poslechu a porovnání ;)

Analyzed: Red Hot Chili Peppers / Californication
-------------------------------------------------------------------------------
DR Peak RMS Duration Track
--------------------------------------------------------------------------------
DR14 -1.46 dB -16.87 dB 3:59 01-Around the World
DR14 -0.35 dB -16.29 dB 4:28 02-Parallel Universe
DR11 -2.93 dB -16.67 dB 3:39 03-Scar Tissue
DR14 -0.44 dB -16.10 dB 4:15 04-Otherside
DR11 -3.67 dB -16.02 dB 3:18 05-Get on Top
DR11 -3.52 dB -16.69 dB 5:31 06-Californication
DR12 -1.45 dB -15.97 dB 3:51 07-Easily
DR10 -6.45 dB -18.59 dB 2:44 08-Porcelain
DR12 -2.64 dB -16.92 dB 4:00 09-Emit Remmus
DR14 -1.19 dB -17.25 dB 2:38 10-I Like Dirt
DR13 -1.83 dB -17.81 dB 3:45 11-This Velvet Glove
DR10 -4.30 dB -17.15 dB 5:04 12-Savior
DR12 -3.13 dB -16.99 dB 4:13 13-Purple Stain
DR14 -1.35 dB -16.90 dB 1:52 14-Right on Time
DR10 -6.52 dB -18.21 dB 3:28 19-Road Trippin' (without strings)

--------------------------------------------------------------------------------
Versus toto *headbang*

Number of tracks: 15
Official DR value: DR12

DR Peak RMS Duration Track
--------------------------------------------------------------------------------
DR4 0.00 dB -5.87 dB 3:57 ?-01. Around The World
DR4 -0.10 dB -5.24 dB 4:30 ?-02. Parallel Universe
DR4 0.00 dB -5.60 dB 3:36 ?-03. Scar Tissue
DR4 -0.10 dB -5.09 dB 4:15 ?-04. Otherside
DR4 -0.09 dB -5.06 dB 3:17 ?-05. Get on Top
DR4 -0.10 dB -5.65 dB 5:19 ?-06. Californication
DR3 0.00 dB -4.96 dB 3:50 ?-07. Easily
DR6 -0.30 dB -7.59 dB 2:42 ?-08. Porcelain
DR4 0.00 dB -5.97 dB 3:59 ?-09. Emit Remmus
DR5 -0.10 dB -6.23 dB 2:37 ?-10. I Like Dirt
DR4 0.00 dB -6.86 dB 3:44 ?-11. This Velvet Glove
DR4 0.00 dB -6.09 dB 4:51 ?-12. Savior
DR4 -0.10 dB -5.99 dB 4:13 ?-13. Purple Stain
DR5 -0.10 dB -5.91 dB 1:52 ?-14. Right on Time
DR6 -0.30 dB -7.10 dB 3:24 ?-15. Road Trippin'
--------------------------------------------------------------------------------
Number of tracks: 15
Official DR value: DR4

Uživatelský avatar
jirie
Příspěvky: 767
Registrován: 03 pro 2008 11:35
Kontaktovat uživatele:

Re: Příšerná kvalita originálních CD

Příspěvek od jirie »

PetrD píše:
23 říj 2017 12:14
Chlapi, na Lechose nemá cenu reagovat, stejně je to Troll ;)
Archeolechos :lol:

Uživatelský avatar
lechos
Příspěvky: 4382
Registrován: 09 pro 2008 08:34
Kontaktovat uživatele:
Vybavení

Re: Příšerná kvalita originálních CD

Příspěvek od lechos »

na to vlákno nemá cenu reagovat, člověk odlišných názorů je vždy nepohodlný stádu, mějte se tu krásně
ale prosím příště vážit svá slova, snad nechci tak moc, bye

Uživatelský avatar
Karel1
Příspěvky: 304
Registrován: 05 led 2015 13:24
Kontaktovat uživatele:
Vybavení

Re: Příšerná kvalita originálních CD

Příspěvek od Karel1 »

Lechosi, promiň, ale ty jen dokazuješ, že jsi ještě blbější, než jsme si mysleli :o

valderon
Příspěvky: 309
Registrován: 16 lis 2008 09:13
Kontaktovat uživatele:

Re: Příšerná kvalita originálních CD

Příspěvek od valderon »

Můžu poprosit o informaci, která verze Red Hotů má to krásný DR? Děkuji


Uživatelský avatar
LawIAR
Příspěvky: 698
Registrován: 09 kvě 2016 22:15
Kontaktovat uživatele:

Re: Příšerná kvalita originálních CD

Příspěvek od LawIAR »

"Bootleg fan remaster widely available online"
:lol:

Uživatelský avatar
PetrD
Příspěvky: 853
Registrován: 01 pro 2013 19:06
Kontaktovat uživatele:

Re: Příšerná kvalita originálních CD

Příspěvek od PetrD »

valderon píše:
24 říj 2017 20:18
Můžu poprosit o informaci, která verze Red Hotů má to krásný DR? Děkuji
*offtopic* Jestli mohu . . . je to ke stažení ve FLAC na "rutracker.org" ;)
http://rutracker.org/forum/tracker.php? ... ornication


Odpovědět

Kdo je online

Uživatelé prohlížející si toto fórum: taunt a 1 host