Příšerná kvalita originálních CD

CD, SACD, HDCD, DVD, DVDAudio, BluRay, streamovaní, formáty, média, online služby, playery, digitální knižnice a vše kolem digitálu
Odpovědět
Uživatelský avatar
cvrcek69
Příspěvky: 125
Registrován: 10 črc 2014 11:21
Kontaktovat uživatele:
Vybavení

Re: Příšerná kvalita originálních CD

Příspěvek od cvrcek69 »

Jo to bych mohl zkusit ale to co mám v origu tak si i stahuju ve flac abych mohl naládovat Fiio X1 a dělá to bohužel taky v těch samých místech. Zkusím to, díky :-)

Bazi 36
Příspěvky: 1142
Registrován: 04 lis 2017 16:20
Kontaktovat uživatele:

Re: Příšerná kvalita originálních CD

Příspěvek od Bazi 36 »

Bohuzel takova cd existuji uz z vyroby. Nikdo vetsinou nechape,jak to muze projit. Sam jsem zjistoval chyby v podobe lupanců u best of eva cassidy a po prehrani na vice sestavach zjistená zvuková vada nahrávky.

Uživatelský avatar
cvrcek69
Příspěvky: 125
Registrován: 10 črc 2014 11:21
Kontaktovat uživatele:
Vybavení

Re: Příšerná kvalita originálních CD

Příspěvek od cvrcek69 »

No tak to tedy není dobrý... U toho Planta ty ruchy a šumy asi tak mají být i když je to příšerný... Nechápu že se to dostane ven, a zkazí to náladu i když to má přinést radost...Zkoušel jsem to i z PC přes Dragonfly a i z YouTube a má to ty samé mouchy... Vím že moje vybavení je bída ale toto jsou překážky které neovlivním a i jedna skladba mi pak zkazí potěšení z celýho alba 🙄

Uživatelský avatar
drfish
Příspěvky: 1377
Registrován: 17 pro 2012 17:16
Kontaktovat uživatele:
Vybavení

Re: Příšerná kvalita originálních CD

Příspěvek od drfish »

Na internetu koluje Californication [PREMASTERED] (1999) [FLAC].
Teď jsem to změřil má to DR 10. Teď nedávno jsem koupil japonce RHCHP By the way. O dva roky mladší album má sice DR7 (což je dnes v bigbeatu normál), ale poslouchatelné to je. DR holt není úplně všecko.


THresil
Příspěvky: 284
Registrován: 07 srp 2010 11:28
Kontaktovat uživatele:

Re: Příšerná kvalita originálních CD

Příspěvek od THresil »

Jistě... Dost také záleží na žánru a náročnosti skladby/nástrojů.
Má zkušenost je, že pokud je nízké DR (např. 6), tak jsou docela dobře čitelné/slyšitelné hodně hlasité nástroje (např. buben), ale nástroje a hlasy, které jsou v pozadí se nedají moc dobře detekovat a často úplně zaniknou.
Takže ve výsledku, pokud mám skladbu, která má např. DR 15 a já ji vědomě zprasím na DR 6, tak tam téměř u každé skladby poznám rozdíl směrem *thumbs down*

mumu
Příspěvky: 227
Registrován: 23 úno 2011 13:33
Kontaktovat uživatele:

Re: Příšerná kvalita originálních CD

Příspěvek od mumu »

Ako sa stane, že skladba má DR 15 a Ty ju vedome sprasíš na DR6 ?

THresil
Příspěvky: 284
Registrován: 07 srp 2010 11:28
Kontaktovat uživatele:

Re: Příšerná kvalita originálních CD

Příspěvek od THresil »

Ano, měl jsem tím na mysli, aby si mohl porovnat, jaký to má dopad.
Ne, aby to dělal normálně, nebo že se to tak praktikuje. Prostě jen příklad :)


Uživatelský avatar
PetrD
Příspěvky: 853
Registrován: 01 pro 2013 19:06
Kontaktovat uživatele:

Re: Příšerná kvalita originálních CD

Příspěvek od PetrD »

Při druhé skladbě letělo cd z playeru :shock: To se fakt nedá *headbang*
Feeder.jpg
http://dr.loudness-war.info/album/view/36525
PS: Daruji za odvoz ;)

Uživatelský avatar
lechos
Příspěvky: 4390
Registrován: 09 pro 2008 08:34
Kontaktovat uživatele:
Vybavení

Re: Příšerná kvalita originálních CD

Příspěvek od lechos »

CD nekupuji už cca 10 let, zcela zbytečné
MP3 plně vyhoví no a kdo nechce ať platí jak barevný, dobře mu tak

Uživatelský avatar
Leony5
Příspěvky: 628
Registrován: 10 bře 2014 19:55
Kontaktovat uživatele:
Vybavení

Re: Příšerná kvalita originálních CD

Příspěvek od Leony5 »

Je to hnus velebnosti.

Uživatelský avatar
Karel1
Příspěvky: 304
Registrován: 05 led 2015 13:24
Kontaktovat uživatele:
Vybavení

Re: Příšerná kvalita originálních CD

Příspěvek od Karel1 »

lechos píše:
04 črc 2019 19:09
CD nekupuji už cca 10 let, zcela zbytečné
MP3 plně vyhoví no a kdo nechce ať platí jak barevný, dobře mu tak
:lol:
Lechos nikdy nezklame

THresil
Příspěvky: 284
Registrován: 07 srp 2010 11:28
Kontaktovat uživatele:

Re: Příšerná kvalita originálních CD

Příspěvek od THresil »

No jo, ale není MP3/jako MP3... *2thumbsup*

Uživatelský avatar
bacil2
Příspěvky: 824
Registrován: 16 zář 2016 11:23
Kontaktovat uživatele:

Re: Příšerná kvalita originálních CD

Příspěvek od bacil2 »

... a hlavne neni CD ako CD !!!

;)

Uživatelský avatar
PetrD
Příspěvky: 853
Registrován: 01 pro 2013 19:06
Kontaktovat uživatele:

Re: Příšerná kvalita originálních CD

Příspěvek od PetrD »

Důvod, proč se současná CD nedají kupovat :(
KA.jpg
foobar2000 1.2.9 / Dynamic Range Meter 1.1.1
log date: 2019-09-21 15:25:11

--------------------------------------------------------------------------------
Analyzed: Knight Area / D-Day
--------------------------------------------------------------------------------
DR Peak RMS Duration Track
--------------------------------------------------------------------------------
DR5 0.00 dB -6.71 dB 6:29 01-New Horizon
DR5 0.00 dB -5.86 dB 5:10 02-Overlord
DR5 0.00 dB -6.22 dB 5:07 03-Blood On The Risers
DR5 -0.10 dB -6.97 dB 4:58 04-The Landing
DR5 -0.43 dB -6.47 dB 6:01 05-Omaha Beach
DR8 -0.10 dB -11.14 dB 3:44 07-When I'll Be With You
DR5 0.00 dB -6.17 dB 4:05 06-Rememberance
DR5 0.00 dB -5.75 dB 4:35 08-Wings Of Time
DR5 0.00 dB -6.86 dB 7:45 09-March To Victory
DR5 0.00 dB -5.96 dB 6:50 10-Freedom For Everyone
--------------------------------------------------------------------------------
Number of tracks: 10
Official DR value: DR5

Samplerate: 44100 Hz
Channels: 2
Bits per sample: 16
Bitrate: 1029 kbps

Odpovědět

Kdo je online

Uživatelé prohlížející si toto fórum: Žádní registrovaní uživatelé a 1 host