Co právě poslouchám

Dnes hraje nebo hrálo ...
Odpovědět
Uživatelský avatar
lechos
Příspěvky: 4069
Registrován: 09 pro 2008 08:34
Kontaktovat uživatele:
Vybavení

Re: Co právě poslouchám

Příspěvek od lechos »

Pytel píše:Právě poslouchám nové album Deep Purple -- Now What -- . Na první poslech dobré, nezaměnitelný hlas Gillana, ale asi už nic nového a převratného od nich nemohu čekat,....
Tyhle kapely jsou 20 let za výsluním a nahrávají točí akorát ze setrvačnosti, zoufalství nebo nudy. Kdysi jsem poslouchal a docela měl rád Kiss za jejich muziku i scénické divadelní kousky
(Destroyer, Love Gun, Dynasty, Unmasked...) jenomže jejich nejnovější počin Monster 2012
totál zklamání navzdory tomu co vyprávěl o albu Paul Stanley...marketing, reklama a propagace nic víc.

Uživatelský avatar
drfish
Příspěvky: 1359
Registrován: 17 pro 2012 17:16
Kontaktovat uživatele:
Vybavení

Re: Co právě poslouchám

Příspěvek od drfish »

Jo oni všichni vypráví o svých nových deskách jak si to skládání prožili, jak to šlapalo a byla skvělá parta a povedl se jim vyjímečný počin. Je to možná bavilo, ale jinak to bývá často nuda. Viz noví Soundgarden- vypráví o tom, jak dozrávali, jak se propracovali zpátky jeden k druhému a všechny ty kecy okolo. Z muziky ale není cejtit nic- ani energie, ani nasranost, ani tak ani tak- jenom to tak teče a nic. Chlapi si to užili, ale my si to holt asi neužijem, bo je to úplně jinde. :cry:

Uživatelský avatar
Pecuch
Příspěvky: 47
Registrován: 16 říj 2012 09:20
Kontaktovat uživatele:

Re: Co právě poslouchám

Příspěvek od Pecuch »

Bohužel je to čím dál častější jev, za mne je to Depeche Mode a jejich nové album Delta Machine-prostě nic nového, nevím jak je na tom David Bowie s jeho novinkou na kterou se taky chystám.... ale právě poslouchám Santanu-essential 2cd a je to jako z jiné planety... Prostě zážitek...už to valim po třetí *palec*

Uživatelský avatar
drfish
Příspěvky: 1359
Registrován: 17 pro 2012 17:16
Kontaktovat uživatele:
Vybavení

Re: Co právě poslouchám

Příspěvek od drfish »

Pecuch:

Souhlas, doporučuju návrat k prvním čtyřem deskám DM, to mne překvapilo, jak je to po těch letech dobrý. Úplně jsem přestal poslouchat ty novější, ale Speak and Spell a Broken Frame jedu dost často. Bowie je v posledních letech ve formě, třeba to bude dobrý *palec*

Uživatelský avatar
Steve
Příspěvky: 398
Registrován: 15 srp 2008 00:57
Kontaktovat uživatele:

Re: Co právě poslouchám

Příspěvek od Steve »

Tak já jsem nedělní odpoledne strávil s ženským hlasem, a to velmi příjemným pro mé uši. První kousek byl
poklidný a vkusný jazzík v podání Dave´s True story - NATURE s nezaměnitelným hlasem zpěvačky Kelly Flint
http://www.allmusic.com/album/nature-mw0000476371

následováno skvělou jedničkou Fiony Apple - Tidal, s nádherně procítěným a smyslným zpěvem Fiony. Lahůdka... *thumbs up*
http://www.allmusic.com/album/tidal-mw0000185578

boxer

Re: Co právě poslouchám

Příspěvek od boxer »

Ad Deep Purple.

Toto je opětovné zhoršení už tak špatně nahraných CD.
Jedno z jejich nejhorších.

Deep Purple - Now What! - 2013
----------------------------------------------------------------------------------------------
DR Peak RMS Filename
----------------------------------------------------------------------------------------------

DR7 -0.27 dB -10.21 dB 01. A Simple Song.wav
DR6 -0.05 dB -8.22 dB 02. Weirdistan.wav
DR6 -0.12 dB -7.85 dB 03. Out Of Hand.wav
DR6 -0.08 dB -7.57 dB 04. Hell To Pay.wav
DR6 -0.07 dB -7.39 dB 05. Bodyline.wav
DR5 -0.12 dB -6.90 dB 06. Above And Beyond.wav
DR7 -0.01 dB -9.14 dB 07. Blood From A Stone.wav
DR6 -0.01 dB -8.79 dB 08. Uncommon Man.wav
DR6 -0.14 dB -7.44 dB 09. Apres Vous.wav
DR5 -0.01 dB -7.04 dB 10. All The Time In The World.wav
DR6 -0.01 dB -7.31 dB 11. Vincent Price.wav
DR6 -0.16 dB -7.57 dB 12. It'll Be Me (Bonus Track).wav
----------------------------------------------------------------------------------------------

Number of files: 12
Official DR value: DR6

Uživatelský avatar
drfish
Příspěvky: 1359
Registrován: 17 pro 2012 17:16
Kontaktovat uživatele:
Vybavení

Re: Co právě poslouchám

Příspěvek od drfish »

Mnoho let jsem je míjel a letos v zimě do nich konečně šel. The Waterboys. Ani pop ani rock, něco mezi. Obdivuju ten rozměr, sílu, smutek, energii. Jsou prostě skvělí, má to hloubku. This is the sea, Dream harder a Fisherman´s Blues jsou špičky ledovce *thumbs up* *thumbs up* *thumbs up* *thumbs up* *thumbs up*
http://www.allmusic.com/artist/the-wate ... 0000924508

Uživatelský avatar
lechos
Příspěvky: 4069
Registrován: 09 pro 2008 08:34
Kontaktovat uživatele:
Vybavení

Re: Co právě poslouchám

Příspěvek od lechos »

Slayer - South of Heaven (1988) extrémní trash, Jeff Hanneman lead guitarist totiž zemřel, 49 let tragicky paradoxně ve stejném věku jako Milan Peroutka.

Uživatelský avatar
DRVOŠTĚP
Příspěvky: 919
Registrován: 27 bře 2010 19:02
Kontaktovat uživatele:

Re: Co právě poslouchám

Příspěvek od DRVOŠTĚP »

the POLICE-zenyatta mondatta,original editions vintage vinyl replica japan s obi.

Uživatelský avatar
drfish
Příspěvky: 1359
Registrován: 17 pro 2012 17:16
Kontaktovat uživatele:
Vybavení

Re: Co právě poslouchám

Příspěvek od drfish »

Jelikož jsem trochu vylepšil svou multikanál sestavu, prošel jsem pár věcí a zcela fascinován už druhý večer opakovaně zírám na záznam Alice in Chains- Unplugged. http://www.allmusic.com/album/mtv-unplu ... 0000183677
Parádní záležitost, skvěle zahraná, kdy chlapci z depresívních katarů dokázali dát dohromady set excelentně zaranžovaných songů, které dle mého patří do síně grungeové slávy. Podotýkám, že z CD to ale není úplně ono, musí se to vidět na DVD, má to atmošku jak prase :!: . Kdo chce zavzpomínat na mládí s klukama ze Seattlu, tak tohle je to pravé. *thumbs up* *thumbs up* *thumbs up* *thumbs up* *thumbs up*

Uživatelský avatar
shony
Příspěvky: 72
Registrován: 08 říj 2011 10:14
Kontaktovat uživatele:

Re: Co právě poslouchám

Příspěvek od shony »

Tak som si kúpil HDCD+DVDaudio, no ono to nieje DVDaudio ale iba DVD s hires audio stopou ale aj tak 24/96 a s povestným Youngovým perfekcionalizmom audio kvality skutočne dobré.

Obrázek

To BECAUSE SOUND MATTERS skutočne na ZVUKU ZÁLEŽÍ nieje len kec, doporučujem porovnať cd a dvd budete prekvapený.

Uživatelský avatar
Woofer
Příspěvky: 214
Registrován: 14 bře 2012 22:57
Kontaktovat uživatele:

Re: Co právě poslouchám

Příspěvek od Woofer »

twenty one pilots - "Car Radio
http://www.youtube.com/watch?v=suh0EDgK6vI

Uživatelský avatar
Steve
Příspěvky: 398
Registrován: 15 srp 2008 00:57
Kontaktovat uživatele:

Re: Co právě poslouchám

Příspěvek od Steve »

to Woofer: Hmm, teda jak vyskočí na ten klavír to je něco...Fakt borci a našlapaná nápaditá muzika k tomu *thumbs up*

Uživatelský avatar
Woofer
Příspěvky: 214
Registrován: 14 bře 2012 22:57
Kontaktovat uživatele:

Re: Co právě poslouchám

Příspěvek od Woofer »

Steve,máš dobrý vkus *palec* tato muzika má spoustu energie,dovolím si nabídnout koncert mistra všech mistrů,skromného frajera na bicí a vocal.Dávám si to často na sluchátka,beru ohled na sousedy :lol:
http://www.youtube.com/watch?v=fao2wqoLdRc

Uživatelský avatar
drfish
Příspěvky: 1359
Registrován: 17 pro 2012 17:16
Kontaktovat uživatele:
Vybavení

Re: Co právě poslouchám

Příspěvek od drfish »

Woofer píše:Steve,máš dobrý vkus *palec* tato muzika má spoustu energie,dovolím si nabídnout koncert mistra všech mistrů,skromného frajera na bicí a vocal.Dávám si to často na sluchátka,beru ohled na sousedy :lol:
http://www.youtube.com/watch?v=fao2wqoLdRc
Doporučuju DVD formát toho Collinse, velmi slušný záznam, v multikanále i stereu- často pouštím pro zlepšení nálady, má to energii *palec*

Odpovědět

Kdo je online

Uživatelé prohlížející si toto fórum: Žádní registrovaní uživatelé a 1 host