Co právě poslouchám

Dnes hraje nebo hrálo ...
Odpovědět
Uživatelský avatar
PavelDosko
Příspěvky: 1518
Registrován: 08 úno 2011 13:06
Kontaktovat uživatele:
Vybavení

Re: Co právě poslouchám

Příspěvek od PavelDosko »

Cassandra Wilson - Another Country

Obrázek

Jason
Příspěvky: 461
Registrován: 10 zář 2018 18:26
Kontaktovat uživatele:
Vybavení

Re: Co právě poslouchám

Příspěvek od Jason »

Allan Taylor - All is one
Přílohy
51cut5z0n2L.jpg

Uživatelský avatar
Belq
Příspěvky: 22
Registrován: 11 zář 2018 16:54
Kontaktovat uživatele:

Re: Co právě poslouchám

Příspěvek od Belq »

Neskutočná post-rocková vec.. tých gitár sa neviem nabažiť..

Obrázek

Uživatelský avatar
Pytel
Příspěvky: 1143
Registrován: 19 dub 2008 08:59
Kontaktovat uživatele:

Re: Co právě poslouchám

Příspěvek od Pytel »

Merhaut : Jardo plný souhlas -- Tidal je boží..., ať si říká kdo chce co chce. Přešel jsem ze Spotify a ten nárůst kvality je markantní.

Olympic -- Trilobit --- novinka, která vyšla v pátek a už je na TIDALu. Co více si přát.

irotam
Příspěvky: 151
Registrován: 01 kvě 2018 17:50
Kontaktovat uživatele:

Re: Co právě poslouchám

Příspěvek od irotam »

Poslech po "pár letech".
Obrázek

Uživatelský avatar
lechos
Příspěvky: 4069
Registrován: 09 pro 2008 08:34
Kontaktovat uživatele:
Vybavení

Re: Co právě poslouchám

Příspěvek od lechos »

Uriáši hrajou jak za nejlepších 70.let s Byronem a Hensley, z prapůvodní sestavy zůstal jenom Box, tato kapela vystřídala snad nejvíc personálních změn...

Uživatelský avatar
wizard
Příspěvky: 107
Registrován: 12 led 2015 13:26
Kontaktovat uživatele:

Re: Co právě poslouchám

Příspěvek od wizard »

Kari Bremnes - Det vi har
pridám aj ochutnávku:
Přílohy
Kari.jpg

Uživatelský avatar
PavelDosko
Příspěvky: 1518
Registrován: 08 úno 2011 13:06
Kontaktovat uživatele:
Vybavení

Re: Co právě poslouchám

Příspěvek od PavelDosko »

Yes - Fragile 2015 remixed by Steven Wilson

Obrázek

irotam
Příspěvky: 151
Registrován: 01 kvě 2018 17:50
Kontaktovat uživatele:

Re: Co právě poslouchám

Příspěvek od irotam »

Jak ten remix od Wilsona zní?

Uživatelský avatar
PavelDosko
Příspěvky: 1518
Registrován: 08 úno 2011 13:06
Kontaktovat uživatele:
Vybavení

Re: Co právě poslouchám

Příspěvek od PavelDosko »

dle mne je tam vic detailu i prostoru

puvodni verzi mam od SHM, DR celkove 10
foobar2000 1.4 / Dynamic Range Meter 1.1.1
log date: 2018-09-17 13:23:51

--------------------------------------------------------------------------------
Analyzed: Yes / Fragile (SHM-CD WPCR 13515)
--------------------------------------------------------------------------------

DR Peak RMS Duration Track
--------------------------------------------------------------------------------
DR7 0.00 dB -9.22 dB 8:33 01-Roundabout
DR12 0.00 dB -14.52 dB 1:39 02-Cans And Brahms
DR10 0.00 dB -11.20 dB 1:40 03-We Have Heaven
DR8 0.00 dB -11.19 dB 7:57 04-South Side Of The Sky
DR11 0.00 dB -12.36 dB 0:36 05-Five Per Cent For Nothing
DR10 0.00 dB -11.83 dB 3:30 06-Long Distance Runaround
DR9 0.00 dB -11.20 dB 2:39 07-The Fish (Schindleria Praematurus)
DR14 -0.51 dB -18.44 dB 3:00 08-Mood For A Day
DR8 0.00 dB -11.36 dB 11:26 09-Heart Of The Sunrise
DR8 0.00 dB -9.20 dB 10:31 10-America
DR7 0.00 dB -10.28 dB 8:35 11-Roundabout (Early Rough Mix)
--------------------------------------------------------------------------------

Number of tracks: 11
Official DR value: DR10

Samplerate: 44100 Hz
Channels: 2
Bits per sample: 16
Bitrate: 935 kbps
Codec: FLAC

verze remixovana Wilsonem ma DR 13
foobar2000 1.4 / Dynamic Range Meter 1.1.1
log date: 2018-09-17 13:25:56

--------------------------------------------------------------------------------
Analyzed: Yes / Fragile [Remaster 2015]
--------------------------------------------------------------------------------

DR Peak RMS Duration Track
--------------------------------------------------------------------------------
DR11 -0.15 dB -14.01 dB 8:33 01-Roundabout
DR12 -1.00 dB -20.65 dB 1:40 02-Cans and Brahms
DR12 -0.55 dB -16.08 dB 1:40 03-We Have Heaven
DR13 -0.30 dB -16.32 dB 8:01 04-South Side Of The Sky
DR13 -2.94 dB -19.13 dB 0:36 05-Five Per Cent For Nothing
DR15 -0.30 dB -17.22 dB 3:31 06-Long Distance Runaround
DR12 -0.28 dB -15.00 dB 2:38 07-The FIsh (Schindleria Praematurus)
DR15 -5.92 dB -24.32 dB 2:58 08-Mood For A Day
DR12 0.00 dB -15.64 dB 11:39 09-Heart Of The Sunrise
DR11 -3.72 dB -17.15 dB 8:09 10-Roundabout (Rehearsal take, early mix)
DR12 -0.30 dB -14.39 dB 2:21 11-We Have Heaven (full version, Steven Wilson mix)
DR13 -0.22 dB -16.90 dB 5:12 12-South Side Of The Sky (early version, Steven Wilson mix)
DR12 -0.22 dB -13.21 dB 2:32 13-All Fighters Past (Steven Wilson mix)
DR15 -4.25 dB -24.20 dB 3:04 14-Mood For Another Day (previously unreleased take)
DR11 -3.01 dB -18.16 dB 2:01 15-We Have Heaven (acapella, Steven Wilson mix)
--------------------------------------------------------------------------------

Number of tracks: 15
Official DR value: DR13

Samplerate: 44100 Hz
Channels: 2
Bits per sample: 16
Bitrate: 727 kbps
Codec: FLAC

irotam
Příspěvky: 151
Registrován: 01 kvě 2018 17:50
Kontaktovat uživatele:

Re: Co právě poslouchám

Příspěvek od irotam »

*palec* Dík

Uživatelský avatar
LUK
Příspěvky: 237
Registrován: 20 čer 2013 15:57
Kontaktovat uživatele:

Re: Co právě poslouchám

Příspěvek od LUK »

Belq píše:
16 zář 2018 13:48
Neskutočná post-rocková vec.. tých gitár sa neviem nabažiť..

Distant Dream - It All Starts From Pieces
Jo, tak tohle se mi celkem líbí a do dneška jsem to neznal, vinyl už je na cestě :D. Dokonce spolu s jejich druhou deskou "Your Own Story" *2thumbsup* .

Uživatelský avatar
Belq
Příspěvky: 22
Registrován: 11 zář 2018 16:54
Kontaktovat uživatele:

Re: Co právě poslouchám

Příspěvek od Belq »

Luk, to som rád, že sa páči.. post-rock sem budem hádzať asi častejšie, to je taký môj obľúbený úlet..

dnes výborní Arctic Rise - We come from the stars
Přílohy
maxresdefault.jpg

vitek
Příspěvky: 158
Registrován: 13 led 2009 15:26
Kontaktovat uživatele:

Re: Co právě poslouchám

Příspěvek od vitek »

LUK píše:
17 zář 2018 18:51
Belq píše:
16 zář 2018 13:48
Neskutočná post-rocková vec.. tých gitár sa neviem nabažiť..

Distant Dream - It All Starts From Pieces
Jo, tak tohle se mi celkem líbí a do dneška jsem to neznal, vinyl už je na cestě :D. Dokonce spolu s jejich druhou deskou "Your Own Story" *2thumbsup* .
LUK kde jsi prosím objednal LP? Nějak nemohu nic najít... Dík

Uživatelský avatar
LUK
Příspěvky: 237
Registrován: 20 čer 2013 15:57
Kontaktovat uživatele:

Re: Co právě poslouchám

Příspěvek od LUK »

vitek:
Objednával jsem tady:
https://distantdream.bandcamp.com/album ... rom-pieces
https://distantdream.bandcamp.com/album/your-own-story

V ceně těch vinylů máš navíc i digitální verze těch alb který si můžeš stáhnout v několika různejch formátech, bezztrátovejch i ztrátovejch (WAV, FLAC, MP3.........)

Odpovědět

Kdo je online

Uživatelé prohlížející si toto fórum: Žádní registrovaní uživatelé a 1 host