Co právě poslouchám

Dnes hraje nebo hrálo ...
Odpovědět
Kutil191
Příspěvky: 284
Registrován: 28 led 2018 07:51
Kontaktovat uživatele:

Re: Co právě poslouchám

Příspěvek od Kutil191 »

6417138644916.jpg
Blues z Finska

Spyriva
Příspěvky: 81
Registrován: 24 zář 2018 16:08
Kontaktovat uživatele:

Re: Co právě poslouchám

Příspěvek od Spyriva »

THE BLACK FALL - Clear Perception (2019)
black fall.jpg
...parádny holandský progrock....super hudba... *palec*

Uživatelský avatar
dadaft
Příspěvky: 5894
Registrován: 24 dub 2008 09:50
Kontaktovat uživatele:
Vybavení

Re: Co právě poslouchám

Příspěvek od dadaft »

PetrD píše:
17 lis 2019 23:18
Obrázek
Nejnovější počin polských progresivců "MILLENIUM - The Web"

Hodně povedené *thumbs up*
První dvě pisně mě přišpendlily do sedačky - obrovský prostor, každý nástroj skvěle definovaný a jediněčně usazený na svém místě, třeba u vokálů je to paráda, dospělé bicí, skvěle konturovaná basa, nic není uměle zesilované, vše ve správných poměrech........ zkrátka hraje to jako z praku, člověk si říká, proč se takhle netočí všechno ???

Bohužel od trojky dále dost špatenka, taková ta progrocková rutina......... škoda škoda.


Uživatelský avatar
PetrD
Příspěvky: 847
Registrován: 01 pro 2013 19:06
Kontaktovat uživatele:

Re: Co právě poslouchám

Příspěvek od PetrD »

dadaft píše:
05 pro 2019 22:58
PetrD píše:
17 lis 2019 23:18
Obrázek
Nejnovější počin polských progresivců "MILLENIUM - The Web"

Hodně povedené *thumbs up*
První dvě pisně mě přišpendlily do sedačky - obrovský prostor, každý nástroj skvěle definovaný a jediněčně usazený na svém místě, třeba u vokálů je to paráda, dospělé bicí, skvěle konturovaná basa, nic není uměle zesilované, vše ve správných poměrech........ zkrátka hraje to jako z praku, člověk si říká, proč se takhle netočí všechno ???

Bohužel od trojky dále dost špatenka, taková ta progrocková rutina......... škoda škoda.
Mě zní celé album nahrané stejně . . . průměrně

foobar2000 1.2.9 / Dynamic Range Meter 1.1.1
log date: 2019-11-17 22:25:03
--------------------------------------------------------------------------------
Analyzed: Millenium / The Web
--------------------------------------------------------------------------------
DR Peak RMS Duration Track
--------------------------------------------------------------------------------
DR10 -0.75 dB -12.91 dB 1:37 01-The Web - part I: The Beauty of Her Face
DR10 0.00 dB -12.97 dB 7:52 02-Loser
DR9 0.00 dB -11.28 dB 6:02 03-The Lonely Ship
DR9 0.00 dB -10.90 dB 8:01 04-In the Ocean of the Night
DR9 -0.97 dB -12.03 dB 2:14 05-The Web - part II: I remember You
DR10 0.00 dB -11.73 dB 5:08 06-Name on the Sand
DR9 0.00 dB -10.94 dB 7:30 07-Someone's Feet Will Cover the Traces
DR9 0.00 dB -11.23 dB 8:01 08-The Web - part III: Who Can Bring Them Back to Life?
--------------------------------------------------------------------------------
Number of tracks: 8
Official DR value: DR9

Samplerate: 44100 Hz
Channels: 2
Bits per sample: 16
Bitrate: 889 kbps
Codec: FLAC

Uživatelský avatar
dadaft
Příspěvky: 5894
Registrován: 24 dub 2008 09:50
Kontaktovat uživatele:
Vybavení

Re: Co právě poslouchám

Příspěvek od dadaft »

PetrD - od třetí písničky to jde do háje hudebně, tak jsem to myslel...

Uživatelský avatar
PetrD
Příspěvky: 847
Registrován: 01 pro 2013 19:06
Kontaktovat uživatele:

Re: Co právě poslouchám

Příspěvek od PetrD »

Ok . . . tak Sorry *headbang*
Millenium mám naposlouchána všechna alba, rád je poslouchám, ale občas se mi stává, že album vyšoupnu z playeru ještě před dokončením . . . jakoby se oposluchávalo, jakoby se v různých skladbách opakovaly podobné motivy a skladby se slévaly :? To se mi u "From.Uz", které právě sjíždím, stát nemůže nikdy ;)
Fromuz – kopie.jpg
To je pravděpodobnější, že si ho dám ještě jednou *jupi*

Spyriva
Příspěvky: 81
Registrován: 24 zář 2018 16:08
Kontaktovat uživatele:

Re: Co právě poslouchám

Příspěvek od Spyriva »

NEAL MORSE - Jesus Christ The Exorcist 2CD (2019)
Morse.jpg
...uff...progrocková opera, oplatí sa vypočuť...špičková hudba... *thumbs up* *thumbs up* *thumbs up*


Kutil191
Příspěvky: 284
Registrován: 28 led 2018 07:51
Kontaktovat uživatele:

Re: Co právě poslouchám

Příspěvek od Kutil191 »

0921170000020.jpg
Blues pro dnešní odpoledne.

Uživatelský avatar
dadaft
Příspěvky: 5894
Registrován: 24 dub 2008 09:50
Kontaktovat uživatele:
Vybavení

Re: Co právě poslouchám

Příspěvek od dadaft »

Obrázek
Stan Webb´s
CHICKEN SHACK - The Creeper

Uživatelský avatar
jirka28
Příspěvky: 135
Registrován: 14 dub 2016 06:28
Kontaktovat uživatele:
Vybavení

Re: Co právě poslouchám

Příspěvek od jirka28 »

Obrázek
pana Vojtěcha nemusím ale tohle mně velice příjemně překvapilo. D.Y.K. - D.Y.K.


JV
Příspěvky: 785
Registrován: 08 říj 2008 07:36
Kontaktovat uživatele:

Re: Co právě poslouchám

Příspěvek od JV »

Stanica Mezzo včera večer - Claudio Monteverdi - L'Incoronazione di Poppea.
Perfektné prevedenie, muzika, spev, tanec, choreografia, scéna. Fakt som si to užil.
Kto má rád tento žáner a má možnosť sledovať túto stanicu, tak doporučujem si pozrieť či to nebudú niekedy opakovať.

Kutil191
Příspěvky: 284
Registrován: 28 led 2018 07:51
Kontaktovat uživatele:

Re: Co právě poslouchám

Příspěvek od Kutil191 »

9788797024744.jpg
Jazz pro dnešní večer.

Odpovědět

Kdo je online

Uživatelé prohlížející si toto fórum: Žádní registrovaní uživatelé a 1 host