Co právě poslouchám

Dnes hraje nebo hrálo ...
Odpovědět
Kutil191
Příspěvky: 448
Registrován: 28 led 2018 07:51
Kontaktovat uživatele:

Re: Co právě poslouchám

Příspěvek od Kutil191 »

R-2129641-1464392360-8140.jpeg.jpg
Hard rock ze sedmdesátek.

Kutil191
Příspěvky: 448
Registrován: 28 led 2018 07:51
Kontaktovat uživatele:

Re: Co právě poslouchám

Příspěvek od Kutil191 »

cover_3828151122019_r.jpg
NUOVA IDEA - Itálie - art rock

Kutil191
Příspěvky: 448
Registrován: 28 led 2018 07:51
Kontaktovat uživatele:

Re: Co právě poslouchám

Příspěvek od Kutil191 »

R-8700991-1466897237-9101.jpeg.jpg
Blues rock

Butch
Příspěvky: 15
Registrován: 17 úno 2021 17:15
Kontaktovat uživatele:

Re: Co právě poslouchám

Příspěvek od Butch »

Megaton Sword - "Blood Hails Steel - Steel Hails Fire"
epický hevík *thumbs up*
Obrázek

Uživatelský avatar
Leony5
Příspěvky: 613
Registrován: 10 bře 2014 19:55
Kontaktovat uživatele:
Vybavení

Re: Co právě poslouchám

Příspěvek od Leony5 »

Porcupine Tree /Lightbulb Sun
1378.jpg
rok 2000, progrock

Kutil191
Příspěvky: 448
Registrován: 28 led 2018 07:51
Kontaktovat uživatele:

Re: Co právě poslouchám

Příspěvek od Kutil191 »

MATTY-T-WALL-TRANSPACIFIC-BLUES-VOL-1-900x900-e1571607479213.jpg
Blues rock na nedělní dopoledne.

svartenatt
Příspěvky: 866
Registrován: 13 čer 2016 04:17
Kontaktovat uživatele:
Vybavení

Re: Co právě poslouchám

Příspěvek od svartenatt »

Wolvennest - Temple 2021

Obrázek

Takový experimentální doom.

Pro Luka, stále vycházejí zvukově dobré desky.

foobar2000 1.6.4 / Dynamic Range Meter 1.1.1
log date: 2021-03-06 17:38:33

--------------------------------------------------------------------------------
Analyzed: Wolvennest / Temple
--------------------------------------------------------------------------------

DR Peak RMS Duration Track
--------------------------------------------------------------------------------
DR13 -0.14 dB -16.91 dB 12:26 01-Mantra
DR12 -0.15 dB -15.10 dB 10:23 02-Swear to Fire
DR13 -0.34 dB -17.44 dB 9:08 03-Alecto
DR13 -0.06 dB -15.15 dB 9:51 04-Incarnation
DR12 -1.06 dB -15.35 dB 6:34 05-All That Black
DR12 -0.06 dB -16.07 dB 11:27 06-Succubus
DR12 -1.41 dB -16.74 dB 7:16 07-Disappear
DR13 -1.93 dB -19.28 dB 10:25 08-Souffle De Mort
--------------------------------------------------------------------------------

Number of tracks: 8
Official DR value: DR13

Samplerate: 44100 Hz
Channels: 2
Bits per sample: 16
Bitrate: 719 kbps
Codec: FLAC

Uživatelský avatar
Leony5
Příspěvky: 613
Registrován: 10 bře 2014 19:55
Kontaktovat uživatele:
Vybavení

Re: Co právě poslouchám

Příspěvek od Leony5 »

Porcupine Tree - Voyage 34: The Complete Trip -
Front.jpeg
Trochu se liší od jejich produkce, ale jako vždy u této prog rockové legendy je to precizní muzika.

Uživatelský avatar
Juri
Příspěvky: 165
Registrován: 26 dub 2008 20:05
Kontaktovat uživatele:
Vybavení

Re: Co právě poslouchám

Příspěvek od Juri »

QUELLA VECCHIA LOCANDA - Il Tempo della Gioia, 1974

Obrázek

JV
Příspěvky: 843
Registrován: 08 říj 2008 07:36
Kontaktovat uživatele:

Re: Co právě poslouchám

Příspěvek od JV »

Phil Collins - Hits. Super výber, velmi príjemné počúvanie a neurážajúci zvuk.
Obrázek

Kutil191
Příspěvky: 448
Registrován: 28 led 2018 07:51
Kontaktovat uživatele:

Re: Co právě poslouchám

Příspěvek od Kutil191 »

Hard rock ze sedmdesátých let.
R-1350863-1608845302-7134.jpeg.jpg


Kutil191
Příspěvky: 448
Registrován: 28 led 2018 07:51
Kontaktovat uživatele:

Re: Co právě poslouchám

Příspěvek od Kutil191 »

R-1945855-1516493960-4761.jpeg.jpg
TRACE - Holandsko - progresivní rock

Butch
Příspěvky: 15
Registrován: 17 úno 2021 17:15
Kontaktovat uživatele:

Re: Co právě poslouchám

Příspěvek od Butch »

Type O Negative - Bloody Kisses
Oh zlatý devadesátý, Pete Steele (RIP) ve formě, prostě We Hate Everyone DR11
Obrázek

Uživatelský avatar
Juri
Příspěvky: 165
Registrován: 26 dub 2008 20:05
Kontaktovat uživatele:
Vybavení

Re: Co právě poslouchám

Příspěvek od Juri »

EGONON – Risveglio, 2011

Obrázek

Odpovědět

Kdo je online

Uživatelé prohlížející si toto fórum: Žádní registrovaní uživatelé a 3 hosti