Diana Krall - Glad Rag Doll

Dnes hraje nebo hrálo ...
Odpovědět
bobo
Příspěvky: 57
Registrován: 26 dub 2009 13:57
Kontaktovat uživatele:

Diana Krall - Glad Rag Doll

Příspěvek od bobo »

Tak tahle novinka si určitě zaslouží svoje vlákno. Hóóóóódně jiná deska k předešlým, která určitě přiláká nové fanoušky. Po prvním poslechu velké překvapení !

Obrázek

Uživatelský avatar
Martinp
Příspěvky: 146
Registrován: 17 dub 2008 18:47
Kontaktovat uživatele:

Re: Diana Krall - Glad Rag Doll

Příspěvek od Martinp »

Nabízí se dvě verze Normal a Deluxe edition. Nevíte jaký je mezi nimy rozdíl? Zrovna tak je možnot koupit od u dvou vydavatelů. Verve a Universal.

bobo
Příspěvky: 57
Registrován: 26 dub 2009 13:57
Kontaktovat uživatele:

Re: Diana Krall - Glad Rag Doll

Příspěvek od bobo »

Universal 13 resp. 16 kousků a Verve 14 resp. 17 kousků, takže pozor při výběru !

Bína
Příspěvky: 164
Registrován: 21 úno 2010 12:41
Kontaktovat uživatele:

Re: Diana Krall - Glad Rag Doll

Příspěvek od Bína »

A jak je to s kvalitou nahrávky? Zahlédl jsem nějaké stížnosti na nic moc dynamiku a celkově blbý mastering.
Zaměstnanec firmy Shanling, tohoto času v Číně

Odar
Příspěvky: 1821
Registrován: 12 úno 2010 10:44

Re: Diana Krall - Glad Rag Doll

Příspěvek od Odar »

Uz aj na HDTracks.com http://goo.gl/1srvi

Odar
Příspěvky: 1821
Registrován: 12 úno 2010 10:44

Re: Diana Krall - Glad Rag Doll

Příspěvek od Odar »

Dynamic Range 96/24 z HDTracks

Kód: Vybrat vše

foobar2000 1.1.11 / Dynamic Range Meter 1.1.1
log date: 2012-10-04 08:01:43

--------------------------------------------------------------------------------
Analyzed: Diana Krall / Glad Rag Doll (Deluxe Edition)
--------------------------------------------------------------------------------

DR         Peak         RMS     Duration Track
--------------------------------------------------------------------------------
DR10      -0.20 dB   -12.26 dB      3:07 01-We Just Couldn't Say Goodbye
DR9       -0.30 dB   -10.97 dB      4:30 02-There Ain't No Sweet Man That's Worth The Salt Of My Tears
DR10      -1.80 dB   -14.28 dB      3:43 03-Just Like A Butterfly That's Caught In The Rain
DR8       -0.40 dB   -10.26 dB      3:47 04-You Know - I Know Ev'rything's Made For Love
DR12      -2.69 dB   -17.70 dB      4:34 05-Glad Rag Doll
DR8       -0.20 dB    -9.64 dB      4:37 06-I'm A Little Mixed Up
DR11      -1.00 dB   -14.33 dB      4:22 07-Prairie Lullaby
DR9       -0.70 dB   -12.74 dB      5:09 08-Here Lies Love
DR9       -0.10 dB   -11.91 dB      2:50 09-I Used To Love You But It's All Over Now
DR10      -0.20 dB   -12.66 dB      5:44 10-Let It Rain
DR8       -0.10 dB   -10.00 dB      6:57 11-Lonely Avenue
DR9       -0.35 dB   -12.46 dB      3:51 12-Wide River To Cross
DR10      -0.20 dB   -13.27 dB      4:52 13-When The Curtain Comes Down
DR14      -1.00 dB   -18.04 dB      2:30 14-As Long As I Love
DR12      -1.61 dB   -16.21 dB      2:55 15-Glad Rag Doll (Alternate Version)
DR12      -2.26 dB   -16.92 dB      2:55 16-Garden In The Rain
DR12      -0.20 dB   -13.92 dB      2:07 17-There Ain't No Sweet Man That's Worth The Salt Of My Tears (Alternate Version)
--------------------------------------------------------------------------------

Number of tracks:  17
Official DR value: DR10

Samplerate:        96000 Hz
Channels:          2
Bits per sample:   24
Bitrate:           2528 kbps
Codec:             FLAC
================================================================================

Robelles
Příspěvky: 4
Registrován: 24 kvě 2012 12:29
Kontaktovat uživatele:

Re: Diana Krall - Glad Rag Doll

Příspěvek od Robelles »

Tak ja som to CD dal už 2x. Výborné CD. Charakterom zvuku mi pripomína toto , hugh laurie let them talk,

Odar
Příspěvky: 1821
Registrován: 12 úno 2010 10:44

Re: Diana Krall - Glad Rag Doll

Příspěvek od Odar »

Mna naopak tento album vobec nezaujal. Ma lepsie. Siel prec *sunglases*

Juris

Re: Diana Krall - Glad Rag Doll

Příspěvek od Juris »

Pro kritiky: Diana Krall přece avizovala, že chtěla udělat v jejím podání hodně staré skladby, které ji někdy nějak oslovily a táhly se s ní po celý život. Není to její tvorba a podle mne toto téma zpracovala velmi dobře. Výběr převzatých skladem je hodně různorodý a odbočuje od jejího stylu. Je to zase něco nového, jak se taky dá dělat muzika a mě se to osobně líbí, protože vím, že třeba příští album bude klasicky jazzové. Tak asi tak... ;)

Odpovědět

Kdo je online

Uživatelé prohlížející si toto fórum: Žádní registrovaní uživatelé a 1 host