Co právě poslouchám

Dnes hraje nebo hrálo ...
Odpovědět
Uživatelský avatar
NIN
Příspěvky: 1469
Registrován: 30 led 2013 15:38
Kontaktovat uživatele:
Vybavení

Re: Co právě poslouchám

Příspěvek od NIN »

AFTERSHOCKS - dle kritiků nepodařený projekt Kocába se špičkovými muzikanty - slavný Billy Sheehan - basa, Virgil Donati - bicí (jeden z uchazečů o post bicmena v Dream Theater)a Glenn Proudfoot - kytarový řemeslník z Austrálie.
Technický heavy rock okořeněný Kocábovým specifickým (i když angličtina nic moc) vokálem, který opravdu šlape. Obsahově lepší průměr a navíc velmi slušná zvuková nahrávka mi provětrala obejvák. Tady je ke koupi za hubičku http://www.musicrecords.cz/catalogue/hu ... ram=person
AFTERSHOCKS.JPG

Kutil191
Příspěvky: 547
Registrován: 28 led 2018 07:51
Kontaktovat uživatele:

Re: Co právě poslouchám

Příspěvek od Kutil191 »

cd-moznosti-tu-sou.jpg
Jedno z nejlepších českých CD za rok 1994
Hudba : M. Pavlíček
Text : J. Topol

Uživatelský avatar
dadaft
Příspěvky: 6300
Registrován: 24 dub 2008 09:50
Kontaktovat uživatele:
Vybavení

Re: Co právě poslouchám

Příspěvek od dadaft »

Obrázek

THE WOOD BROTHERS - One Drop of Truth

Dneska na novou desku The Wood Brothers v LN upozornil Ondřej Bezr
https://www.lidovky.cz/the-wood-brother ... ultura_bez
a vystihl to dobře.
Má to duši a některé kousky jsou parádní...................................

Uživatelský avatar
dadaft
Příspěvky: 6300
Registrován: 24 dub 2008 09:50
Kontaktovat uživatele:
Vybavení

Re: Co právě poslouchám

Příspěvek od dadaft »

Obrázek

NORTH MISSISSIPPI ALLSTARS - World Boogie Is Coming


Jak napovídá název kapely, jižanská záležitost. Současnost.

Tentokrát v hodně hodně indie kabátě (i zvukově).

Kutil191
Příspěvky: 547
Registrován: 28 led 2018 07:51
Kontaktovat uživatele:

Re: Co právě poslouchám

Příspěvek od Kutil191 »

Staré CD jsou hezké , staré CD patří do CD přehrávače
Petr Kalandra.jpg
Taky CD z rok 1994
Špitál u sv. Jakuba
Nikdy nebudeš svůj
Měšťácky blues
To jsu skladby na které se nedá zapomenout

Uživatelský avatar
RedBaron
Příspěvky: 787
Registrován: 11 dub 2013 16:08
Kontaktovat uživatele:
Vybavení

Re: Co právě poslouchám

Příspěvek od RedBaron »

MOOODY BLUES - Rockový klenot

Symfonický progrock nebo jak to nazvat, chvilku po zavření očí vidí člověk honičku Toma a Jerryho ve skladbě "Lunch Break Peach Hour" a chvíli je to pěknej rokec. Chvíli je hudba melancholická, chvíli skoro country, chvíli nevázaně šedesátková a jindy hudebně vystihuje krásné okamžiky naděje a uklidnění. Takhle nějak si představuju emoce v hudbě. Mňam! *thumbs up*

Zvukově je i SACD remaster na můj vkus slitý a má trochu U - ekvalizaci, nepatří k úplné špičce, ale taky ne k průserům. Ale tady zvítězily emoce.
folder.jpg

Uživatelský avatar
koudelka
Příspěvky: 373
Registrován: 11 led 2010 09:49
Kontaktovat uživatele:
Vybavení

Re: Co právě poslouchám

Příspěvek od koudelka »

Po dloooouhatánské době, mé milované a skvělé Dexys Midnight Runners


Obrázek

Uživatelský avatar
dadaft
Příspěvky: 6300
Registrován: 24 dub 2008 09:50
Kontaktovat uživatele:
Vybavení

Re: Co právě poslouchám

Příspěvek od dadaft »

Obrázek

BLACK SABBATH - 13


No nevím, šly stížnosti, že se to nedá poslouchat, protože DR 5-6. Projel jsem to analyzérem a je to pravda. Přesto mi to musím říct hraje skvěle,,,,,,,,,,,,,,,,,,,,,,,,,,,,

Hudebně klasika jako vyšitá.

valderon
Příspěvky: 313
Registrován: 16 lis 2008 09:13
Kontaktovat uživatele:

Re: Co právě poslouchám

Příspěvek od valderon »

Nemá to BS-13 někdo na vinylu, stojí za to ? Případně jaký vydání? Hudba super, ale to cd opravdu mohlo být lepší, takže zvažuji LP... Děkuji za radu.

Dasta
Příspěvky: 1069
Registrován: 15 led 2017 15:18
Kontaktovat uživatele:
Vybavení

Re: Co právě poslouchám

Příspěvek od Dasta »

LP Black Sabbath 13 vlastním od roku 2013, kdy vyšlo na značce
Vertigo.Vyšlo na LP zatím pouze jednou, zvukově velmi dobré, dynamicky v pořádku.

Uživatelský avatar
RedBaron
Příspěvky: 787
Registrován: 11 dub 2013 16:08
Kontaktovat uživatele:
Vybavení

Re: Co právě poslouchám

Příspěvek od RedBaron »

V digitálu opět nejlepší verze od KronStudioLab. 16/44, zvuk daleko lepší a přirozenější než oficiální 24bitovej download.

Oldear
Příspěvky: 923
Registrován: 23 kvě 2017 17:58
Kontaktovat uživatele:
Vybavení

Re: Co právě poslouchám

Příspěvek od Oldear »

Potvrzuji, BS - 13, P 2013 povedené 2LP, zvukově klasika BS, s dospělejším a usedlejším hlasem Ozzyho. Povedená deska.

Kutil191
Příspěvky: 547
Registrován: 28 led 2018 07:51
Kontaktovat uživatele:

Re: Co právě poslouchám

Příspěvek od Kutil191 »

blue effect.jpg
Dnes přišlo CD
Supraphon 2017
Hraje fakt dobře

raskod
Příspěvky: 72
Registrován: 13 bře 2014 19:38
Kontaktovat uživatele:
Vybavení

Re: Co právě poslouchám

Příspěvek od raskod »

Kutil191 píše:
16 úno 2018 18:53
Dnes přišlo CD
Supraphon 2017
Hraje fakt dobře
Ake to ma DR ?

Uživatelský avatar
PavelDosko
Příspěvky: 1627
Registrován: 08 úno 2011 13:06
Kontaktovat uživatele:
Vybavení

Re: Co právě poslouchám

Příspěvek od PavelDosko »

v HiRes Supraphonu -
foobar2000 1.3.13 / Dynamic Range Meter 1.1.1
log date: 2017-06-20 15:13:22

--------------------------------------------------------------------------------
Analyzed: Blue Effect / Meditace
--------------------------------------------------------------------------------

DR Peak RMS Duration Track
--------------------------------------------------------------------------------
DR10 0.00 dB -15.12 dB 4:33 01-Pamet lasky
DR11 0.00 dB -13.97 dB 4:10 02-Blue Effect Street
DR11 0.00 dB -17.28 dB 4:32 03-Fenix
DR11 0.00 dB -13.01 dB 2:30 04-Stroj na nic
DR12 0.00 dB -16.57 dB 1:52 05-Slunecny hrob
DR9 0.00 dB -10.54 dB 3:58 06-Little Girl (Devcatko)
DR9 0.00 dB -11.69 dB 3:11 07-Deserted Alley (Osamela ulice)
DR10 0.00 dB -14.64 dB 8:08 08-Blues About Stone (Kamenne blues)
DR9 0.00 dB -11.11 dB 4:04 09-Rainy Day (Destivy den)
DR10 0.00 dB -13.15 dB 3:34 10-Where Is My Star (Kde je ma hvezda)
--------------------------------------------------------------------------------

Number of tracks: 10
Official DR value: DR10

Samplerate: 192000 Hz
Channels: 2
Bits per sample: 24
Bitrate: 9216 kbps
Codec: PCM
================================================================================

Odpovědět

Kdo je online

Uživatelé prohlížející si toto fórum: Žádní registrovaní uživatelé a 1 host