Co právě poslouchám

Dnes hraje nebo hrálo ...
Odpovědět
TJK
Příspěvky: 302
Registrován: 09 úno 2013 09:23
Kontaktovat uživatele:
Vybavení

Re: Co právě poslouchám

Příspěvek od TJK »

TJK píše:SUEDE - Night Thoughts
Po víc jak dvaceti letech album které se opravdu povedlo. Sice působí zvukově technicky temně (u SUEDE to není nic proti ničemu) a i přes ne úplně kvalitní mastering (bohužel oběť doby) se velmi dobře poslouchá (za vydatné pomoci SoXu). Suede asi tímto albem nezboří ani Billboard ani British chart, kvůli absenci vyloženého radio fláku, ale od nich se to ani nečeká. Po Blackstaru z ledna toto v únoru (Night Thoughts bych zařadil dokonce výše). Doufám že březen a další měsíce roku 16 budou v takové výborné muzice pokračovat.

bh69
Příspěvky: 2030
Registrován: 18 říj 2009 07:22
Kontaktovat uživatele:
Vybavení

Re: Co právě poslouchám

Příspěvek od bh69 »

[youtube]QzIgRbD_kYY[/youtube]

Uživatelský avatar
fox
Příspěvky: 2088
Registrován: 07 črc 2008 10:03
Kontaktovat uživatele:
Vybavení

Re: Co právě poslouchám

Příspěvek od fox »

Obrázek

Zrovna dorazilo. Večer určitě poslechnu z kolotoče. :D
Michell Gyrodec/Orbe,SME V,Lyra Delos,RCM,step up trafo MgBeran,Esoteric DV60,Stream box RS,Music First Audio,Audia Flight 100 MK4, Red Wine Audio,Tannoy Turnberry GR+ST100,Acoustic Revive,WBT ...

Kolargol
Příspěvky: 10
Registrován: 10 lis 2013 21:13
Kontaktovat uživatele:

Re: Co právě poslouchám

Příspěvek od Kolargol »

Leszek Możdżer - Lars Danielsson - Zohar Fresco - měl sem období kdy sem je doslova hltal. Dream trio.

Vanden plas - the god thing

Kolargol
Příspěvky: 10
Registrován: 10 lis 2013 21:13
Kontaktovat uživatele:

Re: Co právě poslouchám

Příspěvek od Kolargol »

Dire Straits - On Every Street

Uživatelský avatar
lechos
Příspěvky: 4070
Registrován: 09 pro 2008 08:34
Kontaktovat uživatele:
Vybavení

Re: Co právě poslouchám

Příspěvek od lechos »

Tahle kapela předstihla o dva roky vlnu punku (Ramones, Sex pistols...) jednoduché riffy na 3 akordy a texty, komerčně se neprosadila, divný ten osud...basák "animal" Mendoza odešel k Twisted sister kdežto kytarista Ross "the Boss" Funicello posílil řady Shakin´ Street...první vinyl (Epic Records) dneska průměrná sběratelská rarita.
Obrázek

Uživatelský avatar
PetrD
Příspěvky: 848
Registrován: 01 pro 2013 19:06
Kontaktovat uživatele:

Re: Co právě poslouchám

Příspěvek od PetrD »

Čerstvý přírustek od skvělých Norů . . . MOTORPSYCHO - "Here Be Monsters"
Obrázek

Malá poznámka ke kvalitě nahrávky.....na tomto albu je příkladná ukázka toho, jak může být celkové DR ovlivněno (v tomto případě obstojných 10dB) :? Úvodní skladba "Sleepwalking" o délce 0:57 min. má DR 15dB, poslední skladba "Big Black Dog" (úžasná) o délce 17:43 min. má DR 7dB :( No a když to "zprůměrujeme" . . . :o

foobar2000 1.2.9 / Dynamic Range Meter 1.1.1
log date: 2016-02-14 13:46:28

--------------------------------------------------------------------------------
Analyzed: Motorpsycho / Here Be Monsters
--------------------------------------------------------------------------------
DR Peak RMS Duration Track
--------------------------------------------------------------------------------
DR15 -8.95 dB -27.92 dB 0:57 01-Sleepwalking
DR8 -0.45 dB -10.84 dB 9:47 02-Lacuna/Sunrise
DR10 -0.50 dB -12.39 dB 5:39 03-Running With Scissors
DR7 -0.45 dB -10.00 dB 7:05 04-I.M.S.
DR8 -0.48 dB -10.34 dB 4:08 05-Spin, Spin, Spin
DR13 -6.30 dB -23.50 dB 0:57 06-Sleepwalking Again
DR7 -0.47 dB -11.16 dB 17:43 07-Big Black Dog
--------------------------------------------------------------------------------
Number of tracks: 7
Official DR value: DR10

Samplerate: 44100 Hz
Channels: 2
Bits per sample: 16
Bitrate: 795 kbps
Codec: FLAC

boxer

Re: Co právě poslouchám

Příspěvek od boxer »

Buď ho miluješ nebo.....

Doufám, že název není myšlen jako opravdu. Bylo by to, po poslechu, tedy k...a škoda. Hraje jim to jak zamlada.

Obrázek

Uživatelský avatar
MB
Příspěvky: 1113
Registrován: 17 dub 2008 13:33
Kontaktovat uživatele:
Vybavení

Re: Co právě poslouchám

Příspěvek od MB »

Si zašiel v Amerike na koncert? :mrgreen:

Uživatelský avatar
PetrD
Příspěvky: 848
Registrován: 01 pro 2013 19:06
Kontaktovat uživatele:

Re: Co právě poslouchám

Příspěvek od PetrD »

boxer píše:Buď ho miluješ nebo.....

Doufám, že název není myšlen jako opravdu. Bylo by to, po poslechu, tedy k...a škoda. Hraje jim to jak zamlada.

Obrázek
Jo jo, jak za mlada ;)
Ale fakt už bych někomu nasral do rukou :evil:

foobar2000 1.2.9 / Dynamic Range Meter 1.1.1
log date: 2016-02-17 22:13:50

DR Peak RMS Duration Track
--------------------------------------------------------------------------------
DR4 -0.03 dB -5.16 dB 7:22 ?-01 - Season of the Dead
DR4 -0.02 dB -4.93 dB 6:58 ?-02 - Cry All Night
DR4 -0.02 dB -4.86 dB 4:57 ?-03 - Take Me Home
DR4 -0.02 dB -4.95 dB 5:31 ?-04 - Isoloated Man
DR4 -0.02 dB -5.21 dB 8:57 ?-05 - God Is Dead (Live Sydney, Australia 4,27,13)
DR4 0.00 dB -5.55 dB 4:36 ?-06 - Under The Sun (Live Auckland, New Zealand 4,20,13)
DR4 -0.02 dB -5.42 dB 8:09 ?-07 - End Of The Beginning (Live Hamilton, ON Canada 4,11,14)
DR4 -0.02 dB -4.92 dB 7:46 ?-08 - Age Of Reason (Live Hamilton, ON Canada 4,11,14)
--------------------------------------------------------------------------------
Number of tracks: 8
Official DR value: DR4

Samplerate: 44100 Hz
Channels: 2
Bits per sample: 16
Bitrate: 1039 kbps
Codec: FLAC

Po čtvrté skladbě jsem si musel dát dva panáky *fnuk* Do každého ucha jeden :(

boxer

Re: Co právě poslouchám

Příspěvek od boxer »

N DR není nic moc a live mně až tak nezajímalo, ale ty první 4 novinky se mi líbí. Jinak většina dnešní produkce je v DR v p..... a tam.

S tím nic nenadělám(e). Ale jinak jim to skládá a hraje mladě.

Uživatelský avatar
PetrD
Příspěvky: 848
Registrován: 01 pro 2013 19:06
Kontaktovat uživatele:

Re: Co právě poslouchám

Příspěvek od PetrD »

Najdou se alba (nahrávky), kde je DR nic moc, ale ještě to zvukově ujde a dá se (a je-li to do sbírky, pořídím CD). V případě novinky Black Sabbath je ovšem zvuk hrozný, vše slité, hluk střídá hluk. Připomíná mi to případ Red Hot Chili Peppers s albem "Californication", které bylo v roce 1999 podobně, úmyslně zprzněno (DR4), aby vždy a všude hrálo pořád nahlas. Tupá většina jim na to skákala a album mělo velký úspěch. Až na "nátlak" v roce 2014 spatřil světlo světa tzv. neoficiální remaster z původní nahrávky nezprzněné konečným masteringem (DR12). Když jsem to porovnával, neskutečný rozdíl. Opravdu neskutečný. Když se ale vrátím k Black Sabbath, dávám ti za pravdu . . . první čtyři skladby se mi líbí (dál už byly mé zvukovody otupělé).

Uživatelský avatar
Pytel
Příspěvky: 1143
Registrován: 19 dub 2008 08:59
Kontaktovat uživatele:

Re: Co právě poslouchám

Příspěvek od Pytel »

Tak poslouchám BS -- The End -- super jak za mlada, hlavně prvé čtyři kousky.

Včera jsem rozlepil LP které jsem dostal před měsícem k narozkám : 180gram Jethro Tull -- Aqualung a Thick as a Brick -- remaster Steven Wilson, nečekal jsem takový zvuk, myslím lepší jak původní nahrávky. Fakt povedený remaster, kdyby takových bylo více. Dneska asi opět zatočím kolotočem.

Carlos
Příspěvky: 72
Registrován: 27 čer 2008 22:51
Kontaktovat uživatele:
Vybavení

Re: Co právě poslouchám

Příspěvek od Carlos »

Ti noví Sabbati nejsou špatní. Zvuk je hutný sabbatovský, mouchy bych v tomto žánru tolik nehledal. Zatím je to jenom ochutnávka (EP), počkáme si na final. Jde jim to i bez Warda.

Uživatelský avatar
PetrD
Příspěvky: 848
Registrován: 01 pro 2013 19:06
Kontaktovat uživatele:

Re: Co právě poslouchám

Příspěvek od PetrD »

Carlos píše: . . . Zvuk je hutný sabbatovský, mouchy bych v tomto žánru tolik nehledal . . .
Jistě, máš pravdu, zvuk je opravdu hutný ;) Tím to ale končí :( Mouchy nehledám, jen jsem si našel čas, zahrabal ve sbírce a trochu poslouchal a porovnával. Možná, že porovnávám neporovnatelné ;) Stejný aparát, stejná hlasitost, stejné místo poslechu . . . znova jsem dal nejnovější počin Black Sabbath - "The End", následně Black Sabbath I (1970/1986, CLACD 196, 5 017615619621, DR12 *thumbs up* ) a potom "Sabbath Blody Sabbath" (1973/1986, CLACD 201, 5 017615620122, DR13 *thumbs up* *thumbs up* ). Znovu souhlasím, jsou hutní, ale při srovnání s tím, co tu zmiňuji, je to docela sajrajt. Na "jedničce" v pohodě rozeznám každý nástroj, krásně vyniká foukačka atd . . . u "The End" jen ta hutnost :? Oproti jedničce musím volume ubrat o cca 30-40%, aby se na mě nevalil jen ten "hutný (sabbatovký) hluk. Je to každého věc, co a jak si poslouchá, ale já mám radši ZVUK než HUTNOST. Ale album jako takové je OK ;)

Odpovědět

Kdo je online

Uživatelé prohlížející si toto fórum: Žádní registrovaní uživatelé a 2 hosti