Co právě poslouchám - na VINYLu

Dnes hraje nebo hrálo ...
Odpovědět
Uživatelský avatar
lidumil
Příspěvky: 1271
Registrován: 04 dub 2011 21:02
Kontaktovat uživatele:
Vybavení

Re: Co právě poslouchám - na VINYLu

Příspěvek od lidumil »

Ještě že jsem to nekoupil. I hudebně, co jsem slyšel, tak dost zoufalství.

Uživatelský avatar
jirka28
Příspěvky: 135
Registrován: 14 dub 2016 06:28
Kontaktovat uživatele:
Vybavení

Re: Co právě poslouchám - na VINYLu

Příspěvek od jirka28 »

Ještě k Evolucii, desku jsem reklamoval a první deska, která byla bez výšek hraje znatelně lépe (nechápu) a jsem spokojený v rámci možností :-) DR10


File Name | Format | SR | Word Length | Max. TPL | LUFSi | DR (PMF) |

01 Takhle Tě Mám Rád | .aiff | 96k | 24 | -7.02 | -17.97 | 9 |
02 Chtěli Jsme Lítat | .aiff | 96k | 24 | -6.51 | -17.76 | 9 |
03 Nejlepší, Kterou Znám | .aiff | 96k | 24 | -6.99 | -18.56 | 10 |
04 Burning Man | .aiff | 96k | 24 | -6.88 | -19.03 | 10 |
05 SEX 3 | .aiff | 96k | 24 | -5.14 | -18.87 | 11 |
06 Já Jsem Pan Petr Monk | .aiff | 96k | 24 | -6.00 | -20.48 | 11 |
07 Peněžena | .aiff | 96k | 24 | -7.41 | -17.74 | 9 |
08 Než Tě Rozkradou | .aiff | 96k | 24 | -6.90 | -18.08 | 9 |
09 Fénixovy Slzy | .aiff | 96k | 24 | -5.90 | -18.50 | 9 |
10 Já To Nemám Spočítaný | .aiff | 96k | 24 | -6.77 | -19.67 | 11 |
11 Slečna Do Nekonečna | .aiff | 96k | 24 | -5.99 | -17.39 | 9 |
12 1968 | .aiff | 96k | 24 | -7.11 | -17.46 | 9 |
13 EvoLucie | .aiff | 96k | 24 | -5.71 | -19.46 | 10 |

Number of EP/Album Files: 13
Official EP/Album DR: 10

Uživatelský avatar
PavelDosko
Příspěvky: 1522
Registrován: 08 úno 2011 13:06
Kontaktovat uživatele:
Vybavení

Re: Co právě poslouchám - na VINYLu

Příspěvek od PavelDosko »

24/96 ? odkud ?

takhle to prodava Supraphonline -
foobar2000 1.4 / Dynamic Range Meter 1.1.1
log date: 2018-11-09 13:05:17

--------------------------------------------------------------------------------
Analyzed: Lucie / EvoLucie
--------------------------------------------------------------------------------

DR Peak RMS Duration Track
--------------------------------------------------------------------------------
DR4 -0.10 dB -5.81 dB 3:07 01-Takhle Tě Mám Rád
DR4 -0.10 dB -5.21 dB 2:41 02-Chtěli Jsme Lítat
DR6 -0.12 dB -7.27 dB 4:26 03-Nejlepší, Kterou Znám
DR5 -1.10 dB -7.63 dB 3:59 04-Burning Man
DR5 -0.10 dB -6.77 dB 3:25 05-Sex 3
DR6 -0.13 dB -8.80 dB 4:36 06-Já Jsem Pan Petr Monk
DR6 -0.10 dB -6.87 dB 3:04 07-Peněžena
DR3 -2.20 dB -7.60 dB 4:28 08-Než Tě Rozkradou
DR5 -0.16 dB -6.96 dB 3:26 09-Fénixovy Slzy
DR7 -0.10 dB -8.77 dB 3:54 10-Já To Nemám Spočítaný
DR5 -0.10 dB -7.02 dB 4:10 11-Slečna Do Nekonečna
DR6 0.00 dB -7.05 dB 3:23 12-1968
DR6 -0.10 dB -8.43 dB 3:33 13-EvoLucie
--------------------------------------------------------------------------------

Number of tracks: 13
Official DR value: DR5

Samplerate: 44100 Hz
Channels: 2
Bits per sample: 16
Bitrate: 991 kbps
Codec: FLAC

Uživatelský avatar
Antony
Příspěvky: 724
Registrován: 28 čer 2014 19:13
Kontaktovat uživatele:
Vybavení

Re: Co právě poslouchám - na VINYLu

Příspěvek od Antony »

Jirka si zřejmě udělal vinyl rip a z něj provedl výpočet DR.

Uživatelský avatar
LUK
Příspěvky: 237
Registrován: 20 čer 2013 15:57
Kontaktovat uživatele:

Re: Co právě poslouchám - na VINYLu

Příspěvek od LUK »


Uživatelský avatar
Antony
Příspěvky: 724
Registrován: 28 čer 2014 19:13
Kontaktovat uživatele:
Vybavení

Re: Co právě poslouchám - na VINYLu

Příspěvek od Antony »

To nejspíš. Je to tam rychle :)

Uživatelský avatar
jirka28
Příspěvky: 135
Registrován: 14 dub 2016 06:28
Kontaktovat uživatele:
Vybavení

Re: Co právě poslouchám - na VINYLu

Příspěvek od jirka28 »

Ano, udělal jsem si rip a měření z něho uploadoval na http://dr.loudness-war.info/album/view/156270 v poznámce je i moje vybavení.

Uživatelský avatar
Antony
Příspěvky: 724
Registrován: 28 čer 2014 19:13
Kontaktovat uživatele:
Vybavení

Re: Co právě poslouchám - na VINYLu

Příspěvek od Antony »

jirka28
Palec nahoru, to je velmi záslužná činnost.

Uživatelský avatar
lechos
Příspěvky: 4070
Registrován: 09 pro 2008 08:34
Kontaktovat uživatele:
Vybavení

Re: Co právě poslouchám - na VINYLu

Příspěvek od lechos »

tři vinyly (Beatles, U2, Queen) za cenu dvou, v Kaulandu; tomu se říká množstevní sleva (rabat)
:lol: :lol: :lol:

Uživatelský avatar
koudelka
Příspěvky: 373
Registrován: 11 led 2010 09:49
Kontaktovat uživatele:
Vybavení

Re: Co právě poslouchám - na VINYLu

Příspěvek od koudelka »

Ten Years After I+Stonehenge dvou vinyl od DERAM, super hudba, bezva zvuk bez ohledu na roky 1967 a 69. Na pondělí perfektní zážitek :)

Uživatelský avatar
lechos
Příspěvky: 4070
Registrován: 09 pro 2008 08:34
Kontaktovat uživatele:
Vybavení

Re: Co právě poslouchám - na VINYLu

Příspěvek od lechos »

no, jazz (tedy přesněji jazzrock Joe Zawinula) skoro neposlouchám a neznám ale zaujal mě obal alba, vinyl, Supraphon 1979
Přílohy
weather report.png

JV
Příspěvky: 785
Registrován: 08 říj 2008 07:36
Kontaktovat uživatele:

Re: Co právě poslouchám - na VINYLu

Příspěvek od JV »

Bon Jovi - Blaze of glory (Popron). Myslím že tento druh hudby mu celkom sadol. Taká pohodička.
Na súčasnej aparatúre som musel vypnúť pure direct a pridať trochu basu aj víšok, nech to má šmrnc.
Obrázek

JV
Příspěvky: 785
Registrován: 08 říj 2008 07:36
Kontaktovat uživatele:

Re: Co právě poslouchám - na VINYLu

Příspěvek od JV »

Vraj je to dnes už 50 rokov čo vyšlo LPčko Kryl - Bratříčku zavírej vrátka. Bohužial niektoré texty sú stále viac či menej aktuálne.
Obrázek

JV
Příspěvky: 785
Registrován: 08 říj 2008 07:36
Kontaktovat uživatele:

Re: Co právě poslouchám - na VINYLu

Příspěvek od JV »

Tuším tu počúvam platne už iba ja. :)
Včera som dal Tin machine - jeden z projektov Davida Bowieho. Hudobne niečo medzi punkom a akousi alternatívou. Rozhodne zaujímavé, ale púšťam si to tak raz za 10 rokov.
Obrázek

valderon
Příspěvky: 300
Registrován: 16 lis 2008 09:13
Kontaktovat uživatele:

Re: Co právě poslouchám - na VINYLu

Příspěvek od valderon »

JV, neboj nejsi sám ;)
Dnes mi přišla lahůdka... Kauan - SORNI NAI. Úžasná věc. Mám to na cd, a zamiloval si to. Dlouho jsem proto sháněl toto lp. Stálo to za to!
Přílohy
Sorni nai .jpg

Odpovědět

Kdo je online

Uživatelé prohlížející si toto fórum: Žádní registrovaní uživatelé a 1 host