Co právě poslouchám

Dnes hraje nebo hrálo ...
Odpovědět
Uživatelský avatar
dadaft
Příspěvky: 5888
Registrován: 24 dub 2008 09:50
Kontaktovat uživatele:
Vybavení

Re: Co právě poslouchám

Příspěvek od dadaft »

Obrázek

VDELLI - Ain´t Bringing Me Down

Skvělý hard-rock *thumbs up* , nabustrované Gibsony husté jako šlehačka, šlapající basovka...

Superpecky: Manhole, Going Too Hard (For Too Long), Boogie A, Condescending Lies nebo závěrečná titulní Ain´t Bringing Me Down

raskod
Příspěvky: 71
Registrován: 13 bře 2014 19:38
Kontaktovat uživatele:
Vybavení

Re: Co právě poslouchám

Příspěvek od raskod »

Holly Cole - Holly (2018) *2thumbsup*
Obrázek

Uživatelský avatar
dadaft
Příspěvky: 5888
Registrován: 24 dub 2008 09:50
Kontaktovat uživatele:
Vybavení

Re: Co právě poslouchám

Příspěvek od dadaft »

Obrázek

Buddaheads _ Howlin´At The Moon
.
.
Prostě jenom starej dobrej bělošskej blues-rock.
.
.
Skvěle nahranej.
.
.
Yeah.

Vyblíz
Příspěvky: 556
Registrován: 14 srp 2016 05:28
Kontaktovat uživatele:

Re: Co právě poslouchám

Příspěvek od Vyblíz »

Solidní folk/country/pop nahrávka
http://www.deezer.com/album/15385123
Obrázek
Copywright / Reprobazar / Videoprezentace

Uživatelský avatar
koudelka
Příspěvky: 373
Registrován: 11 led 2010 09:49
Kontaktovat uživatele:
Vybavení

Re: Co právě poslouchám

Příspěvek od koudelka »

Michael Wollny, Eva Kruse, Eric Schaefer - (EM) III, 2008 PECKA! :)

https://www.discogs.com/Wollny-Kruse-Sc ... se/1408367

jisk
Příspěvky: 100
Registrován: 21 srp 2015 11:52
Kontaktovat uživatele:
Vybavení

Re: Co právě poslouchám

Příspěvek od jisk »

koudelka:
taky Michaela Wollneho sjiždím už asi tři týdny a pořád se mě to neoposlouchalo
Vyzkoušej případně také Helge Lien Trio, to mě bralo před Wollnym

Uživatelský avatar
koudelka
Příspěvky: 373
Registrován: 11 led 2010 09:49
Kontaktovat uživatele:
Vybavení

Re: Co právě poslouchám

Příspěvek od koudelka »

jisk: díky za tip, mrknu na to :)

kubas
Příspěvky: 261
Registrován: 28 črc 2010 13:38
Kontaktovat uživatele:

Re: Co právě poslouchám

Příspěvek od kubas »

Obrázek

Uživatelský avatar
dadaft
Příspěvky: 5888
Registrován: 24 dub 2008 09:50
Kontaktovat uživatele:
Vybavení

Re: Co právě poslouchám

Příspěvek od dadaft »

Obrázek

VOODOO SIX _ Make Way For The King (2017)


Hardrock z Londýna

Jako ono je to těžké -- jsi muzikant, máš rád hardrock, jenže před tebou už dávno hráli Black Sabbath, Párpli, Zepelíni, AC/DC a další giganti žánru, všechny postupy už jsou stokrát projeté, všechny riffy a refrény rozebrané, ale přece jen se dá s pokorou k žánru něco vymyslet ,,,,,,,,,,,,,,,,,,,,,,,,,,,,,, u jedníčky jsem ještě váhal, ale od dvojky, titulní Make Way for the King už to jelo -- jedna valivá těžkotonážní nabustrovaná masáž za druhou,,,,,,,,,,,,,,,, všechno tak 5 a půl minuty,,,,,,,,,,,, no prostě klasická hardrockárna, na koncertě dát pár piv a jointa a vystřelí tě do kosmu :roll: :lol: .

Nahrávka jakž takž, slušně nabustrované kytary, basa má i jakousi strukturu, bicí pravda trochu učvachtané, ale ještě se to dá, třeba desky žánrově spřízněných Black Spiders nebo Electric Mary, jsou ještě horší.

Uživatelský avatar
lechos
Příspěvky: 4069
Registrován: 09 pro 2008 08:34
Kontaktovat uživatele:
Vybavení

Re: Co právě poslouchám

Příspěvek od lechos »

tak, zrovna poslouchám Saxon, polozapomenutou kapelu NWOBHM co se letos (2018) připomenula albem Thunderbolt, dominantní titul They played rock´n´roll celkově výrazná basová a rytmická tonace desky
co klade nemalé nároky na jakost aparátu, PC bedničky nemusí ve zdraví přežít ten útok přední linie nástrojů a dB, no já jsem Vás varoval...
http://img24.cz/images/05802236145870737300.jpg

Lemon
Příspěvky: 481
Registrován: 30 led 2016 22:33
Kontaktovat uživatele:

Re: Co právě poslouchám

Příspěvek od Lemon »

Omar Akram

Hodně pohodová záležitost a zvukově taky dobrá kvalita.

Uživatelský avatar
dadaft
Příspěvky: 5888
Registrován: 24 dub 2008 09:50
Kontaktovat uživatele:
Vybavení

Re: Co právě poslouchám

Příspěvek od dadaft »

Obrázek

COEN WOLTERS BAND _ Illumination

hard-rock
strato-sound

Netuším, co je to "FULL SPECTRUM STEREO" na obalu, řekl bych trochu equalizéru a trochu kompresoru, ale ať tak nebo tak, zvuk je dobrý, basy takové, že mi u Into The Light pumpuje nejen bránice, ale i oční bulvy. :shock: :lol:
Woltersův Stratocaster je nabustrovaný úplně božsky,........................

Uživatelský avatar
PavelDosko
Příspěvky: 1518
Registrován: 08 úno 2011 13:06
Kontaktovat uživatele:
Vybavení

Re: Co právě poslouchám

Příspěvek od PavelDosko »

Martin Kratochvíl - Tony Ackerman Moravské koncerty
https://www.supraphonline.cz/album/2084 ... e-koncerty

vydal Bonton 1989
a kuk na to DR ...
foobar2000 1.3.13 / Dynamic Range Meter 1.1.1
log date: 2018-06-01 10:23:55

--------------------------------------------------------------------------------
Analyzed: Kratochvil-Ackerman-Havel / Moravske koncerty
--------------------------------------------------------------------------------

DR Peak RMS Duration Track
--------------------------------------------------------------------------------
DR15 -0.65 dB -21.44 dB 17:06 01-Ornament, To mrkas na drat a on je to spagat
DR14 -0.57 dB -19.56 dB 7:28 02-River's Invitation, Chicago Blues
DR16 -1.19 dB -22.63 dB 13:40 03-Sumperske prekvapeni
DR16 -2.29 dB -23.61 dB 9:21 04-Kalypso
DR21 -1.54 dB -32.15 dB 6:00 05-Lucni harfa
DR14 -1.49 dB -18.96 dB 4:31 06-Somebody Stole My Girl
DR15 -2.01 dB -23.13 dB 11:38 07-Toledo
--------------------------------------------------------------------------------

Number of tracks: 7
Official DR value: DR16

Samplerate: 44100 Hz
Channels: 2
Bits per sample: 16
Bitrate: 1411

pohodovy jazz

Uživatelský avatar
dadaft
Příspěvky: 5888
Registrován: 24 dub 2008 09:50
Kontaktovat uživatele:
Vybavení

Re: Co právě poslouchám

Příspěvek od dadaft »

Obrázek

Nemůžu se téhle desky nabažit.
Spousta pecek.
Zvuk nabustrovaných Stratocasterů je prostě božský...

Uživatelský avatar
dadaft
Příspěvky: 5888
Registrován: 24 dub 2008 09:50
Kontaktovat uživatele:
Vybavení

Re: Co právě poslouchám

Příspěvek od dadaft »

Obrázek

pomalejší hutné těžkotonážní elektrické blues, kterému vévodí Dudleyho chraplák a stratocaster.
sečteno podtrženo
------------------------------------------------
dadaft je spokojen :D

Odpovědět

Kdo je online

Uživatelé prohlížející si toto fórum: Žádní registrovaní uživatelé a 1 host