Reedice, remastery a remixy do kterých se vyplatí investovat (lepší než původní vydání?)

Dnes hraje nebo hrálo ...
Odpovědět

raskod
Příspěvky: 71
Registrován: 13 bře 2014 19:38
Kontaktovat uživatele:
Vybavení

Re: Reedice, remastery a remixy do kterých se vyplatí investovat (lepší než původní vydání?)

Příspěvek od raskod »

Priatelia, čo keby ste si prečítali názov a vyjadrovali sa k téme? Väčšina príspevkov je *offtopic*

Uživatelský avatar
bacil2
Příspěvky: 722
Registrován: 16 zář 2016 11:23
Kontaktovat uživatele:

Re: Reedice, remastery a remixy do kterých se vyplatí investovat (lepší než původní vydání?)

Příspěvek od bacil2 »

Priatelia, čo keby ste si prečítali názov a vyjadrovali sa k téme?
Hmmm ... tak som si teda konečne prečítal ten názov témy :lol:

... a dovolím si odporúčať nasledovnú krabičku plnú super muziky, ktorá bola nahrávaná ešte v časoch, keď ľudia pojmy ako "kvalita" a "stereo" brali ešte veľmi, veľmi vážne:

http://livingstereo.alongthehall.com/
Living_Stereo_60CD_x800_2.jpg
Living_Stereo_60CD_x800.jpg

Uživatelský avatar
Antony
Příspěvky: 724
Registrován: 28 čer 2014 19:13
Kontaktovat uživatele:
Vybavení

Re: Reedice, remastery a remixy do kterých se vyplatí investovat (lepší než původní vydání?)

Příspěvek od Antony »

Například za sebe dnes mohu doporučit geniální hudbu v excelentní zvukové kvalitě:
Jiří Stivín ‎– Alchymia Musicæ (1995) CD Arta Records ‎– F1 0044-2
Muzika na nejvyšší světové úrovni s absolutním zvukem. Je tam všechno. Jazzrock s prvky free music a samozřejmě s názvuky všeho možného. Mám ho ve sbírce od vydání, ale kdykoli se k němu vrátím, mám dokonalý zážitek.
Zajímavé, že tento skvost nebyl nikdy reeditován. A obávám se, že každá reedice může být už jen horší. Přinejlepším stejně dobrá, pokud do toho nehrábnou... Lepší než originál? Nehrozí.
Je to obyčejné CD, avšak naprostá většina Hi-Res se na něj nechytá.

Uživatelský avatar
Antony
Příspěvky: 724
Registrován: 28 čer 2014 19:13
Kontaktovat uživatele:
Vybavení

Re: Reedice, remastery a remixy do kterých se vyplatí investovat (lepší než původní vydání?)

Příspěvek od Antony »

--------------------------------------------------------------------------------
Analyzed: Jiří Stivín / Alchymia Musicae
--------------------------------------------------------------------------------

DR Peak RMS Duration Track
--------------------------------------------------------------------------------
DR13 -0.47 dB -17.33 dB 9:04 01-The Inspiration of the Renaissance - Echoes
DR13 -0.48 dB -17.61 dB 6:54 02-The Inspiration of the Renaissance - Mourning
DR13 -1.08 dB -17.72 dB 8:41 03-The Inspiration of the Renaissance - Invitation to the Dance
DR14 -0.69 dB -19.12 dB 7:07 04-Cooking Something Up I
DR13 -1.05 dB -19.19 dB 12:46 05-The Metamorphosis of Time
DR13 0.00 dB -16.20 dB 5:06 06-Cooking Something Up II
DR14 0.00 dB -16.74 dB 10:15 07-The Alchemysts' Trip
--------------------------------------------------------------------------------

Number of tracks: 7
Official DR value: DR13


Uživatelský avatar
PavelDosko
Příspěvky: 1525
Registrován: 08 úno 2011 13:06
Kontaktovat uživatele:
Vybavení

Re: Reedice, remastery a remixy do kterých se vyplatí investovat (lepší než původní vydání?)

Příspěvek od PavelDosko »

stejne jako Stivin - An Evening Live at AghaRTA Jazz Club (1997)
--------------------------------------------------------------------------------
Analyzed: Jiri Stivin / Live at AghaRTA Jazz Club
--------------------------------------------------------------------------------

DR Peak RMS Duration Track
--------------------------------------------------------------------------------
DR13 -0.60 dB -17.04 dB 8:40 01-Softly As In The Morning Sunrise
DR10 -8.31 dB -23.72 dB 4:10 02-Balada o ocich pani Topicove
DR14 -0.60 dB -17.54 dB 6:52 03-Ezop a brabenec
DR14 -0.60 dB -19.08 dB 8:44 04-Strejcek hlad
DR14 -0.60 dB -18.42 dB 11:30 05-Autumn Leaves
DR14 -2.60 dB -19.48 dB 8:17 06-Dve ryby v cizim meste
DR15 -6.12 dB -25.12 dB 4:40 07-The Fine Crystal
DR17 -0.60 dB -21.57 dB 12:25 08-Big Blit, ci ne big blit
--------------------------------------------------------------------------------

Number of tracks: 8
Official DR value: DR14

Uživatelský avatar
bacil2
Příspěvky: 722
Registrován: 16 zář 2016 11:23
Kontaktovat uživatele:

Re: Reedice, remastery a remixy do kterých se vyplatí investovat (lepší než původní vydání?)

Příspěvek od bacil2 »

... to je príšerné! ... to sa tu už na nič iné nezmôžete, iba si navzájom ukazovať DR ... fakt ako malí kluci! :lol:

Oldear
Příspěvky: 785
Registrován: 23 kvě 2017 17:58
Kontaktovat uživatele:
Vybavení

Re: Reedice, remastery a remixy do kterých se vyplatí investovat (lepší než původní vydání?)

Příspěvek od Oldear »

Jó, v klidu. Včera jsem točil "šelak" od Ultraphonu " Ty můj svatý Antoníčku " a Slávka Fenclová byla skvělá, zvuk přísně přímkově horizontální a DR bylo 28! Doporučuji všem, není to žádný remaster, ale původní vydání z roku 1932 - no prostě zvuková bomba.

Dark side of the moon
Příspěvky: 331
Registrován: 28 čer 2019 14:38
Kontaktovat uživatele:
Vybavení

Re: Reedice, remastery a remixy do kterých se vyplatí investovat (lepší než původní vydání?)

Příspěvek od Dark side of the moon »

Tak jsem zakoupil "Heavy Weather" od Weather Report (původně vydáno v roce 1977). Jednak to v jiném vláknu doporučoval Dasta (vinyl z roku 2011) a bylo to zmiňováno i na jiných fórech jako příklad velmi dobré nahrávky.
Já jsem koupil flac Hi-Res verzi 88kHz/24bit (existují i verze 176/24t a DSD 2.8MHz), vydáno v roce 2012.
Žádné bližší údaje k tomuto remasteru jsem nenašel, ty samplovací frekvence flac formátu jsou trochu méně obvyklé (oproti 96/24 a 192/24).
Myslím si, že proti této verzi nemohou z technického hlediska mít žádné námitky ani největší puristé.
DR skladeb se pohybuje v rozmezí 10 -15, DR alba je 13. Analýza v Audacity (viz. příloha) ukazuje dostatečnou rezervu v hlasitosti, bez clippingu a limitace, s neupravovanými výraznými lokálními peaky. Vypadá to na čistý přepis z analogového pásu bez dalšího remasteringu. Takže by měla panovat úplná spokojenost.

Mě se ale toto album nehodnotí úplně snadno. Jednak nemám původní verzi (kdysi hodně dávno jsem slyšel jen to licenční LP od Supraphonu) a ani neznám jiná alba od Weather Report. A ani jazzrock není můj úplně nejoblíbenější žánr, vždy mi přišel trochu příliš akademický. Nicméně hudba je to kvalitní, takže jsem během týdne dal kompletní poslech celkem 4x.
Z mého hlediska mám jen jednu výtku - celkově mi nahrávka přijde až příliš prezentní a analytická. Vyšší středy jsou oproti zbytku spektra zdůrazněné, trochu překrývají zbytek pásma. Pro jistotu jsem dokonce po delší době oprášil stará sluchátka a provedl kontrolní poslech přes ně. Na Sennheiser HD 590 byl dojem podobný jako při poslechu z beden (jen basů bylo, nepřekvapivě, ještě méně). Na basujících Kosta Porta Pro byl zvuk samozřejmě celkově mnohem horší (opět nepřekvapivě vzhledem k jejich nesrovnatelné cenové kategorii), ale vlastně ... příjemnější.
Takže já budu muset pro pohodový poslech trochu upravit ekvalizační křivku.

Váš názor?
Přílohy
WR.jpg

Bazi 36
Příspěvky: 949
Registrován: 04 lis 2017 16:20
Kontaktovat uživatele:

Re: Reedice, remastery a remixy do kterých se vyplatí investovat (lepší než původní vydání?)

Příspěvek od Bazi 36 »

S tematem to moc nesouvisí, nicmene kdyz uz se bavime o zvuku alb. Dneska jsem v aute vyštrachal totalni pitomost - movie soundtrack z muzikalu Mamma Mia. Valelo se to tam na cedlu asi tri roky stran meho zajmu, tak jen tak z hecu jsem to dotáhnul dom a poprve pustil na domaci sestavě. Profláklá ABBA, navic popík nemusim, ale co. No a pak uz mi jenom padla dolů sánka. Nářez, energie, famózní baskytara, kopák, bicí a basy obecně. Rychlý, přesný, blázinec. Navíc detailní, fajn stereo efekt a takhle většina tracků z dvanácti. Poslední dobou pri poslechu po dvaceti minutach pravidelne ťukam bradou do hrudníku, ale dneska jak na dvaceti redbullech. 37min pusa dokořán. Rikal jsem si v duchu, kdo by se takhle piplal se zvukem ňákýho blbýho soundracku muzikálu a tak mi to nedalo a našel jsem docela fajn počtení:

https://www.soundonsound.com/techniques ... e-go-again

Radši už nebudu podceňovat ani dechoffku, jeste by mi mohlo stran zvuku něco uniknout.


Dark side of the moon
Příspěvky: 331
Registrován: 28 čer 2019 14:38
Kontaktovat uživatele:
Vybavení

Re: Reedice, remastery a remixy do kterých se vyplatí investovat (lepší než původní vydání?)

Příspěvek od Dark side of the moon »

to Bazi 36:
Tak Waterloo od ABBY (licenční LP od Opusu) byla moje inicializační deska někdy cca. v 10 letech. Tehdy úplný zázrak :).
Velmi rychle následovalo objevení dalších kapel a už to jelo.
Ale na ABBu nedám dopustit dodnes. Hudba do krizových situací, mohou ji poslouchat rodiče, manželka i děti.
A jejich LP (včetně toho od Opusu) mi vždycky přišly velmi dobře nahrané. Propaguji tady sice ty nové (kvalitní) remastery, ale tady jsem na ten původní sound tak zvyklý ....
Ale ne, asi to zkusím. Jen se bojím toho zpěvu. Ve filmu se to dalo snést (úlitba manželce), no uvidíme.

Dark side of the moon
Příspěvky: 331
Registrován: 28 čer 2019 14:38
Kontaktovat uživatele:
Vybavení

Re: Reedice, remastery a remixy do kterých se vyplatí investovat (lepší než původní vydání?)

Příspěvek od Dark side of the moon »

Beatles - Abbey Road, 2019 Mix

Tak mám za sebou poslech "Beatles - Abbey Road", 2019 Mix od Gilese Martina (dělal i předchozího "Seržanta" a "White album") v Hi-Res 24/96.
Jedná se o velmi citlivý remix, žádného fanouška Beatles podle mě nemůže nijak urazit.
Technická úroveň je opět skvělá, oproti starším edicím jakoby ze zvuku zmizel jemný závoj, zvuk je přesnější a v některých pasážích bych řekl i syrovější (rockovější).
Doporučuji.


Odpovědět

Kdo je online

Uživatelé prohlížející si toto fórum: Žádní registrovaní uživatelé a 1 host