Co právě poslouchám

Dnes hraje nebo hrálo ...
Odpovědět
ron

Re: Co právě poslouchám

Příspěvek od ron »

Israel Kamakawiwo'ole
Somewhere over the rainbow

Obrázek

boxer

Re: Co právě poslouchám

Příspěvek od boxer »

Po strašně dlouhé době jsem si pustil toto. A myslím, že by někteří zvukaři asi měli infark, kdyby slyšeli, jak se dá zvukově udělat CD.


DR11 -6.92 dB -20.35 dB 01 - Sign ''O'' the Times
DR12 -4.34 dB -18.69 dB 02 - Play in the Sunshine
DR12 -5.83 dB -19.70 dB 03 - Housequake
DR14 -4.67 dB -21.14 dB 04 - The Ballad of Dorothy Parker
DR13 -3.46 dB -18.47 dB 05 - It
DR16 -1.43 dB -19.21 dB 06 - Starfish and Coffee
DR13 -4.03 dB -20.02 dB 07 - Slow Love
DR16 -1.52 dB -19.91 dB 08 - Hot Thing
DR15 -6.25 dB -23.66 dB 09 - Forever in My Life
DR13 -4.32 dB -19.46 dB 10 - U Got the Look
DR15 -5.46 dB -22.78 dB 11 - If I Was Your Girlfriend
DR14 -4.04 dB -20.20 dB 12 - Strange Relationship
DR12 -4.73 dB -19.36 dB 13 - I Could Never Take the Place of Your Man
DR12 -6.32 dB -22.51 dB 14 - The Cross
DR14 -2.81 dB -18.38 dB 15 - It's Gonna Be a Beautiful Night
DR12 -7.77 dB -23.32 dB 16 - Adore
----------------------------------------------------------------------------------------------

Number of files: 16
Official DR value: DR13



Obrázek

boxer

Re: Co právě poslouchám

Příspěvek od boxer »

Dnes zemřel Trevor Bolder. 62let. Čest jeho památce.

I když na níže uvedeném nehrál, přesto jsem si nostalgicky pustil toto CD. (1970).

Tak nějak mi došlo, že (pro mě) už to nejlepší (všeobecně), asi už vyšlo.

Obrázek

Uživatelský avatar
lidumil
Příspěvky: 1271
Registrován: 04 dub 2011 21:02
Kontaktovat uživatele:
Vybavení

Re: Co právě poslouchám

Příspěvek od lidumil »

@ boxer: Poslední dobou je těch smutných zpráv nějak moc, ne? :cry:

Uživatelský avatar
lechos
Příspěvky: 4070
Registrován: 09 pro 2008 08:34
Kontaktovat uživatele:
Vybavení

Re: Co právě poslouchám

Příspěvek od lechos »

Jon Lord, Ronnie James Dio, Gary Moore, Alvin Lee, Jeff Hanneman...stará garda rockerů odchází.

Uživatelský avatar
DRVOŠTĚP
Příspěvky: 919
Registrován: 27 bře 2010 19:02
Kontaktovat uživatele:

Re: Co právě poslouchám

Příspěvek od DRVOŠTĚP »

Cure -Disintegration,Pražský Výběr -Straka v hrsti,Kocáb-Za kyslík

Uživatelský avatar
DRVOŠTĚP
Příspěvky: 919
Registrován: 27 bře 2010 19:02
Kontaktovat uživatele:

Re: Co právě poslouchám

Příspěvek od DRVOŠTĚP »

Jelikož jsem z Duchcova, tak jsem dnes poslouchal -Kdož su boží bojovníci,pověste ho vejš ... a hrrr na ně!!!! Takže z hudební nauky za 1+ :evil:

Uživatelský avatar
DRVOŠTĚP
Příspěvky: 919
Registrován: 27 bře 2010 19:02
Kontaktovat uživatele:

Re: Co právě poslouchám

Příspěvek od DRVOŠTĚP »

p.s Nic za tím nehledejte.V úterý mají v salonku country které se line hospodou... :mrgreen:

Uživatelský avatar
drfish
Příspěvky: 1359
Registrován: 17 pro 2012 17:16
Kontaktovat uživatele:
Vybavení

Re: Co právě poslouchám

Příspěvek od drfish »

Jestli se někdo pamatuje na kapelu Desireless a jejich někdejší hit Voyage, Voyage, tak teď si dávám jejich CD Francois. Cítím se jako by mi bylo 16. :lol:

Uživatelský avatar
DRVOŠTĚP
Příspěvky: 919
Registrován: 27 bře 2010 19:02
Kontaktovat uživatele:

Re: Co právě poslouchám

Příspěvek od DRVOŠTĚP »

Tak Ti pěkně děkuji :mrgreen: Jsem si to teda z nostalgie pustil abych se cítil na těch 16.Výsledek ?Udivené pohledy členů domácnosti včetně zvířectva :lol:

Uživatelský avatar
drfish
Příspěvky: 1359
Registrován: 17 pro 2012 17:16
Kontaktovat uživatele:
Vybavení

Re: Co právě poslouchám

Příspěvek od drfish »

Ale šestnáct ti v týchvíli bylo ne? Akorát ti okolo tě měli za blázna :lol:

JV
Příspěvky: 785
Registrován: 08 říj 2008 07:36
Kontaktovat uživatele:

Re: Co právě poslouchám

Příspěvek od JV »

Zaujímavé - včera hrali Voyage, Voyage v rádiu a tiež som chytil akýsi nejasný pocit nostalgie, aj keď v čase najväčšej slávy tej piesne som už bol asi kúsok starší.

bh69
Příspěvky: 2030
Registrován: 18 říj 2009 07:22
Kontaktovat uživatele:
Vybavení

Re: Co právě poslouchám

Příspěvek od bh69 »

[youtube]nwI5nPDwp1M[/youtube]

bh69
Příspěvky: 2030
Registrován: 18 říj 2009 07:22
Kontaktovat uživatele:
Vybavení

Re: Co právě poslouchám

Příspěvek od bh69 »

[youtube]z_aZvN8sdJ0[/youtube]

Uživatelský avatar
DRVOŠTĚP
Příspěvky: 919
Registrován: 27 bře 2010 19:02
Kontaktovat uživatele:

Re: Co právě poslouchám

Příspěvek od DRVOŠTĚP »

Dnes mi dorazilo-Beastie Boys - Hello Nasty,Joy division-Closer,the Velvet Underground +Nico -Andy Warhol,Nick Cave -best of,Einsturzende Neubaten -Perpetum mobile,P.I.L-9,P.I.L-This is what...

Odpovědět

Kdo je online

Uživatelé prohlížející si toto fórum: Žádní registrovaní uživatelé a 1 host