Počúvate ešte CD ?

CD, SACD, HDCD, DVD, DVDAudio, BluRay, streamovaní, formáty, média, online služby, playery, digitální knižnice a vše kolem digitálu
Odpovědět
Uživatelský avatar
PavelDosko
Příspěvky: 1615
Registrován: 08 úno 2011 13:06
Kontaktovat uživatele:
Vybavení

Re: Počúvate ešte CD ?

Příspěvek od PavelDosko »

kdyz jsme u te spotreby ... byvaly zesik mi zral 300W bez zateze, s kvalitou produkce to nejak nemelo souvztaznost ...

Uživatelský avatar
lechos
Příspěvky: 4384
Registrován: 09 pro 2008 08:34
Kontaktovat uživatele:
Vybavení

Re: Počúvate ešte CD ?

Příspěvek od lechos »

300W naprázdno ? model ? značka ? typ ?

Dasta
Příspěvky: 1056
Registrován: 15 led 2017 15:18
Kontaktovat uživatele:
Vybavení

Re: Počúvate ešte CD ?

Příspěvek od Dasta »

Když posloucháš potichu, tak je to jako když teče voda čůrkem. Čím vyšší hlasitost, tím větší proud.
Bydlím v paneláku 3+1, poslouchám denně i několik hodin, platím běžnou zálohu, mám rád hodně světla, protože nesnáším šero. Když je roční vyúčtování, tak mi vždycky vrací přeplatek. Mám dva stereo konce v biamp 360W na kanál.

Uživatelský avatar
PavelDosko
Příspěvky: 1615
Registrován: 08 úno 2011 13:06
Kontaktovat uživatele:
Vybavení

Re: Počúvate ešte CD ?

Příspěvek od PavelDosko »

lechos píše:300W naprázdno ? model ? značka ? typ ?
Vincent SV 238 Mk

Uživatelský avatar
lechos
Příspěvky: 4384
Registrován: 09 pro 2008 08:34
Kontaktovat uživatele:
Vybavení

Re: Počúvate ešte CD ?

Příspěvek od lechos »

něpoznám ale naštudujem, pravdou jest že zapnutím pincka A656 (než se naládujou elyty zdroje) krátkodobě pohasne žárovka lampičky co je ve stejný zásuvce, ale běžně hraji na 1/3 max. výkonu abych nezboural barák...

Uživatelský avatar
Techm
Příspěvky: 9
Registrován: 25 dub 2017 18:28
Kontaktovat uživatele:
Vybavení

Re: Počúvate ešte CD ?

Příspěvek od Techm »

Nielenže CD počúvam, aj ich kupujem. Pred kúpou si konkrétny kúsok preverím minimálne na http://dr.loudness-war.info
Keď sa rovnaký song vydá dnes ako remastrovaný, jeho zvuková kvalita je často na zaplakanie. Ak je nahrávka zase moc stará, býva
poznačená šumom a slabou dynamikou. Svoje zohráva aj to, kto hudbu mastroval.

Fyzické nosiče mám rád, môžem ich chytiť do ruky a hudbu si lepšie vychutnám. Nie je na to racionálne vysvetlenie, je to pocit...

Dasta
Příspěvky: 1056
Registrován: 15 led 2017 15:18
Kontaktovat uživatele:
Vybavení

Re: Počúvate ešte CD ?

Příspěvek od Dasta »

Mám to taky tak, mám player, který neunavuje, může se poslouchat dlouhé hodiny.Cedecka poslouchám zásadně celá, dovedu si je užít jako elpíčka.Neuměl bych poslouchat streemovanou hudbu ( absence bookletu), všude kde jsem jí po známých poslouchal, na basech slabé oproti fyzickému nosiči ( můj názor) Věřím v renesanci CD, tak jako se to děje dnes u LP.V 90 tych se mě smály, proč to kupuju, že je to passe, dnes LP kupují také a jsou rádi, že jim občas něco seženu, co běžně není dostupné. Tak asi takhle.

svartenatt
Příspěvky: 870
Registrován: 13 čer 2016 04:17
Kontaktovat uživatele:
Vybavení

Re: Počúvate ešte CD ?

Příspěvek od svartenatt »

Dasta, to myslíš jen stream z Tidal nebo i ripy CD?

Dasta
Příspěvky: 1056
Registrován: 15 led 2017 15:18
Kontaktovat uživatele:
Vybavení

Re: Počúvate ešte CD ?

Příspěvek od Dasta »

Swartenatt,
Mohlo jít i o CD ripy, já nevím co kdo má na harddisku a jaký to mělo původ. Při poslední návštěvě šlo i o 24/96. Porovnávali jsme s cd, které jsem donesl Porovnavalo se na sestavě:
Streamer Lynn,
Zesilovače dělený Bryston
CD player Oppo ( kombajn v ceně 40 t.)
Reproduktory Dynaudio Evidence C2

Uživatelský avatar
PavelDosko
Příspěvky: 1615
Registrován: 08 úno 2011 13:06
Kontaktovat uživatele:
Vybavení

Re: Počúvate ešte CD ?

Příspěvek od PavelDosko »

absence bookletu je asi neporozumeni, u digitalni mas informaci kolik chces ... a o tom jak ti digitalni data hraji rozhoduje jen a pouze dane reseni na kterem to poslouchas, mir v dusi

svartenatt
Příspěvky: 870
Registrován: 13 čer 2016 04:17
Kontaktovat uživatele:
Vybavení

Re: Počúvate ešte CD ?

Příspěvek od svartenatt »

Díky, mě zaujalo to tvé "slabé na basech". Dobrý námět pro další téma.

Dasta
Příspěvky: 1056
Registrován: 15 led 2017 15:18
Kontaktovat uživatele:
Vybavení

Re: Počúvate ešte CD ?

Příspěvek od Dasta »

Pavel Dosko,
Ale to já přece nerozporuju, mám jenom rád papírový obal, který voní.

svartenatt
Příspěvky: 870
Registrován: 13 čer 2016 04:17
Kontaktovat uživatele:
Vybavení

Re: Počúvate ešte CD ?

Příspěvek od svartenatt »

Je pravda, že rozbalování takového digipaku je dobrý fetiš :).

Dasta
Příspěvky: 1056
Registrován: 15 led 2017 15:18
Kontaktovat uživatele:
Vybavení

Re: Počúvate ešte CD ?

Příspěvek od Dasta »

Svartenatt,
Nemusí být digipack, japan vinyl replica taky není k zahození, ovšem originál, ne ruský fake.
Teď vážně.Jeden čas jsem uvažoval o streemovani, přestože mám spoustu cd, ale pro výše uvedené jsem to nerealizoval.

Uživatelský avatar
PetrD
Příspěvky: 853
Registrován: 01 pro 2013 19:06
Kontaktovat uživatele:

Re: Počúvate ešte CD ?

Příspěvek od PetrD »

Poslouchám CD, kupuji CD, ale toto je jeden z hlavních důvodů, proč poslední dobou jen doplňuji sbírky. To už si to ani Robert nedokáže pohlídat?
Cover.jpg
Analyzed: Robert Plant / Carry Fire
------------------------------------------------------------------------------
DR Peak RMS Duration Track
--------------------------------------------------------------------------------
DR6 0.00 dB -8.37 dB 4:14 01-The May Queen
DR6 0.00 dB -7.55 dB 3:28 02-New World...
DR6 0.00 dB -8.31 dB 4:19 03-Season's Song
DR6 0.00 dB -8.75 dB 4:48 04-Dance With You Tonight
DR6 0.00 dB -7.54 dB 3:54 05-Carving Up the World Again...a wall and not a fence
DR7 0.00 dB -10.99 dB 5:19 06-A Way With Words
DR6 0.00 dB -8.75 dB 5:26 07-Carry Fire
DR6 0.00 dB -7.89 dB 3:47 08-Bones of Saints
DR7 0.00 dB -8.96 dB 4:08 09-Keep It Hid
DR6 0.00 dB -7.79 dB 4:59 10-Bluebirds Over the Mountain
DR6 0.00 dB -8.45 dB 4:42 11-Heaven Sent
--------------------------------------------------------------------------------
Number of tracks: 11
Official DR value: DR6

Jaké bylo milé překvapení, když mi přišlo toto album (2 CD, digipack)
006.JPG
Analyzed: Motorpsycho / The Tower
--------------------------------------------------------------------------------

DR Peak RMS Duration Track
--------------------------------------------------------------------------------
DR11 -0.49 dB -14.13 dB 8:42 01-The Tower
DR11 -0.45 dB -11.90 dB 6:07 02-Bartok of the Universe
DR10 -0.39 dB -11.76 dB 6:55 03-A.S.F.E.
DR10 -0.33 dB -13.66 dB 9:51 04-Intrepid Explorer
DR11 -4.53 dB -20.01 dB 3:35 05-Stardust
DR11 -0.43 dB -12.68 dB 8:23 06-In Every Dream Home (There's a Dream of Something Else)
DR10 -1.33 dB -13.07 dB 3:39 07-The Maypole
DR12 -0.57 dB -15.27 dB 15:39 08-A Pacific Sonata
DR11 -0.51 dB -13.58 dB 7:20 09-The Cuckoo
DR10 -0.44 dB -13.00 dB 14:42 10-Ship of Fools
--------------------------------------------------------------------------------
Number of tracks: 10
Official DR value: DR11

Skvělá muzika, dobrý mastering...kdyby alespoň takto "vypadala" rocková alba, která mě zajímají, nebylo by co řešit *thumbs up*

Odpovědět

Kdo je online

Uživatelé prohlížející si toto fórum: Žádní registrovaní uživatelé a 1 host