Počúvate ešte CD ?

CD, SACD, HDCD, DVD, DVDAudio, BluRay, streamovaní, formáty, média, online služby, playery, digitální knižnice a vše kolem digitálu
Odpovědět
Dasta
Příspěvky: 1056
Registrován: 15 led 2017 15:18
Kontaktovat uživatele:
Vybavení

Re: Počúvate ešte CD ?

Příspěvek od Dasta »

Oldeare buď zdráv,
Co se týká Status Quo, nemohu s Tebou souhlasit. Vlastním jejich LP desky vydané Vertigem, kromě živáku všechna řadová alba, převážně německá a
anglická. Jejich DR je v rozpětí 11až 13db.
Vlastním též celou remasterovanou řadu na cd z roku 2005 firmy SALVO, tam se pohybuje DR7až9.Nechají se velice dobře poslouchat.
Původní vydání CD na Vertigo mívala též DR 11-13db.
Jinak s ostatním cos napsal naprosto souhlasím.
Měj se.

Oldear
Příspěvky: 905
Registrován: 23 kvě 2017 17:58
Kontaktovat uživatele:
Vybavení

Re: Počúvate ešte CD ?

Příspěvek od Oldear »

Taky Tě zdravím, asi jsem to blbě napsal, já jsem Staus Quo neměřil, ikdyž je mám a rád je poslouchám, měl jsem na mysli ten dynamický sound - pravda nemaj to tak vždy, který je v jedné lajně bez dynamických změn. Tak opravuji jen u některých skladeb, ale faktem je, že lepší příklad jsou ti Kabáti nebo např. Green Day, či Red Hoti a pod. Např. Pink Floydi mají ve skladbách jinou dynamiku - perfektní.

Bazi 36
Příspěvky: 1143
Registrován: 04 lis 2017 16:20
Kontaktovat uživatele:

Re: Počúvate ešte CD ?

Příspěvek od Bazi 36 »

Navíc je třeba tolerovat spoustu starších nahrávek,viz příklad Complete Clapton disc 1,od Polydoru,vydání 2007. Jsou tam nahrávky z konce šedesátých a průběhu let sedmdesátých,kvalita tak trochu jako z našeho starého kotoučáku r.v.1974(Tesla B90),zato obsah parádní,ovšem druhý disc,léta páně osmdesátá,devadesátá,zbytek do r.2007,tam už je zvuk naprosto v poho,tak jak byl zřejmě i díky novým technologiím lépe nahrán a zpracován.

Uživatelský avatar
PetrD
Příspěvky: 853
Registrován: 01 pro 2013 19:06
Kontaktovat uživatele:

Re: Počúvate ešte CD ?

Příspěvek od PetrD »

Je pochopitelné, že při debatě nad tématem "posloucháte ještě CD?" se to stočí k tématu "kvalita nahrávek". Je to jasné, když už za tu placku vysolím těžce vydělané prašulky, poctivě zdaněné, chtěl bych za ně kvalitní zboží. Byly doby, kdy jsem si koupil CD, protože jsem ho prostě chtěl mít. Poslední dobou jsem se dostal do stádia, kdy si album nejdříve sosnu, poslechnu a pak se rozhoduji. Zásadně album poslouchám neovlivněn jakýmkoliv měřením, věřím svým uším. Teprve při nějakých "pochybnostech" přichází na řadu "kontrola" dynamického rozsahu. Jak už tady nejeden člen zdůraznil, tak pochopitelně dynamický rozsah není všechno (při poslechu The Black Noodle Project se mi nahrávka opravdu líbila, až později jsem zjistil, že se DR pohybuje kolem -6dB :? ). Je ale hodně určující. Myslím si, že Loudness war je nejspíš prohraná, neboť nároky "posluchačů" obecně klesají (v nejlepším případě stagnují), ale flintu do žita nikdy předem neházím. Dokud ale budou brát hudební vydavatelství zřetel na posluchače, kteří mají jako zdroj mobil a s peckami za 100.-Kč v uších, nic se nezlepší. Mobil má nulový výkon, proto musí být nahrávka co nejhlasitější, aby to vůbec mohli poslouchat. Vnímatelnou subjektivní hlasitost určuje RMS (root mean square, průměrná hlasitost), která právě, při zvrácené logice hudebních gigantů, patří v Loudness war k cílům. Jistě, souhlasím, ať si tam rvou zde již zmiňované Kabáty s DR 3, ale proč se mrší hudba, o kterou nikdy nikdo z těchto "posluchačů" nezavadí ani v tom nejabsurdnějším snu? :( Pochopitelně je pro mě nejdůležitější obsah (jak tu nejednou zaznělo), ale může po mě někdo chtít cca 400.- Kč za CD, při jehož poslechu budu skřípat zubama? Nevnímám jen ušima ale celým tělem. Když je zvuk totálně nudný, splývající, nepřirozený, plochý a když není téměř žádný rozdíl mezi nejtišší a nejhlasitější pasáží, CD vypínám. Ale abych nepaušalizoval, i v dnešní době se vyskytnou perly :) Když jsem onehdá poslouchal poslední album polských MILLENIUM - "44 Minutes", cítil jsem, jak se mi chce pořád a pořád zesilovat, jak mě ta nahrávka těší. Neměl jsem potřebu něco měřit, ale neodolal jsem . . .
cover 2.jpg
Analyzed: MILLENIUM / 44 Minutes
------------------------------------------------------------------------------
DR Peak RMS Duration Track
--------------------------------------------------------------------------------
DR13 -0.26 dB -16.26 dB 5:14 01-The Colours of My Life
DR12 0.00 dB -13.27 dB 4:31 02-Liferunner
DR12 -0.11 dB -14.12 dB 7:28 03-Are We Lost?
DR12 -0.12 dB -13.50 dB 4:12 04-Calling!
DR12 -0.06 dB -14.64 dB 8:23 05-My Father Always Said
DR12 0.00 dB -13.22 dB 5:56 06-Lost Teddy Bear Part 1 & 2
DR13 0.00 dB -14.46 dB 8:15 07-44 Minutes
DR12 -0.15 dB -13.69 dB 7:52 08-Ending Titles (Bonus)
--------------------------------------------------------------------------------
Number of tracks: 8
Official DR value: DR12

A další příklad, že to jde i v roce 2017 . . . THE ENID - "Resurgency"
Cover 1.jpg
Analyzed: The Enid / Resurgency
--------------------------------------------------------------------------------
DR Peak RMS Duration Track
--------------------------------------------------------------------------------
DR15 0.00 dB -17.05 dB 3:35 01-Reborn in the Fire
DR15 0.00 dB -18.94 dB 4:28 02-Space Surfing (2017)
DR15 0.00 dB -18.47 dB 12:48 03-Malacandra (2017)
DR14 -2.31 dB -19.73 dB 6:05 04-Leviticus (2017)
DR16 -1.69 dB -19.72 dB 6:28 05-Terra Firma (2017)
DR14 0.00 dB -18.11 dB 5:37 06-Who Created Me (2017)
DR13 0.00 dB -16.39 dB 6:33 07-Witch Hunt (2017)
DR14 -0.87 dB -19.08 dB 5:13 08-Someone Shall Rise (2017)
DR14 0.00 dB -17.37 dB 7:51 09-Shiva (2017)
--------------------------------------------------------------------------------
Number of tracks: 9
Official DR value: DR14


Takže nakonec krátké shrnutí . . . ano, CD stále poslouchám a kupuji. Poslouchat a kupovat budu, ale aniž bych mě finanční situace nějak omezovala, budu pozorně vybírat ;)

Dasta
Příspěvky: 1056
Registrován: 15 led 2017 15:18
Kontaktovat uživatele:
Vybavení

Re: Počúvate ešte CD ?

Příspěvek od Dasta »

Ano, situace se trochu lepší co se týká DR cdéček.Např poslední vydání Zeppelin nebo Uriášů jsou příkladná ( DR kolem-11db).
Že mají cd Kabátů takový dynamický rozsah, mě nikterak neudivuje, cílové skupině jejich posluchačů to evidentně nevadí, tudíž to neřeší.
Udivuje mě ale, když koupím nosič od Telarcu, firma, která byla v minulosti vnímána jako referenční co se týče zvuku a nahrávky celkem jako takové a jejich cd má DR-5 db.,( Al Di Meola "Pursuit Of Radical Rhapsody).To je potom docela mazec.
Jinak cd poslouchám a kupuju a budu už asi až do smrti.

vinyllo
Příspěvky: 1
Registrován: 18 lis 2017 16:19
Kontaktovat uživatele:

Re: Počúvate ešte CD ?

Příspěvek od vinyllo »

Už nepočúvam. Po dlhých rokoch som sa vrátil k prirodzenejšiemu zvuku - LP.

merhaut

Re: Počúvate ešte CD ?

Příspěvek od merhaut »

Mimochodem, s požadavky na fullundfurt hlasitost přišli koncem osmdesátek popíkoví broadcasteři. Ti samí, co propagovali selektory a další zvěrstva. Sám jsem byl svědkem Fleischmannových a Vlčkových nalejváren nesmyslů při jedné sešlosti hudebních publicistů počátkem devadesátých let. Oni se tehdy vymlouvali na to, že v tlačítkových rychlotestech jim vychází, že tohle fullunfurt & dokolečka dokola posluchači preferují. No a už to jelo...

Uživatelský avatar
lechos
Příspěvky: 4399
Registrován: 09 pro 2008 08:34
Kontaktovat uživatele:
Vybavení

Re: Počúvate ešte CD ?

Příspěvek od lechos »

že vraj pálienky (CD-R) viac namahaju laser a čítačku aparátu, su to pivné fámy lebo skutočnosť, he ?

Odar
Příspěvky: 1821
Registrován: 12 úno 2010 10:44

Re: Počúvate ešte CD ?

Příspěvek od Odar »

Namahaju. Po pol roku mozes CDP vyhodit von oknom. Navyse palenka je len 50 % zvuku, lebo ostatna kvalita zvuku sa pri vypalovani odpari. Pocuje to kazdy skuseny hifista.

Uživatelský avatar
Karel1
Příspěvky: 304
Registrován: 05 led 2015 13:24
Kontaktovat uživatele:
Vybavení

Re: Počúvate ešte CD ?

Příspěvek od Karel1 »

Hele, neblbni Lechose nebo ti ještě uvěří :lol:

Uživatelský avatar
Ramones
Příspěvky: 1281
Registrován: 19 zář 2009 19:05
Kontaktovat uživatele:

Re: Počúvate ešte CD ?

Příspěvek od Ramones »

CD považuji stále za jeden z nejlepších nosičů hudby a nehodlám se ho vzdát, byť pohodlí netahat sebou fyzické nosiče je lákavé a na cestách příjemné. LP jsou sice "téměř" analog, ale u nich těžko přecházím rušivé vedlejší dopady: šumy, ruchy, zkreslení a postupnou degradaci atd.
A ty hlášky, že hlasitý mastering je kvůli mobilům a jejich nedostatečnému výkonu ... jako vtip dobrý.
Merhaut to napsal dobře. Vše vzniklo z důvodu, že hlasitější skladba v rádiu vždy zaujme na první poslech lépe, než nějaká audiofilní nahrávka s velkými rozdíly v dB. Pravidla většinového rádiového popu jsou tristní a pokud nezačne zpěv do určitého taktu, vůbec jej nezařadí. Proto vznikaly a vznikají tzv rádiové verze různých songů.
Technická kvalita nahrávky u mne hraje velkou roli a přiznám se, že některé špatně zmixované a vydané z poslechu téměř vyřazuji.

Uživatelský avatar
Karel1
Příspěvky: 304
Registrován: 05 led 2015 13:24
Kontaktovat uživatele:
Vybavení

Re: Počúvate ešte CD ?

Příspěvek od Karel1 »

Netuším, zda si ještě někdy pustím CD Ivana Krále "Always" :? Tak prapodivný mastering jsem dlouho nezažil *fnuk* Kdybych to tušil předem, asi bych si to nekoupil :evil:

Analyzed: Ivan Kral / Always
-------------------------------------------------------------------------------
DR Peak RMS Duration Track
--------------------------------------------------------------------------------
DR5 0.00 dB -6.04 dB 2:50 01-Make Up Your Mind
DR5 -0.06 dB -6.36 dB 3:08 02-Tear My Heart
DR6 -0.21 dB -7.83 dB 3:14 03-I'll Be There
DR4 0.00 dB -5.60 dB 3:22 04-Tell Me
DR7 -0.41 dB -8.90 dB 2:45 05-Mystery Girl
DR5 0.00 dB -6.02 dB 2:37 06-Back Off
DR5 -0.12 dB -6.27 dB 3:28 07-Never Want To Be Without You
DR4 0.00 dB -4.68 dB 2:22 08-Ball And Chain
DR2 0.00 dB -3.85 dB 2:28 09-Time
DR9 -0.18 dB -10.52 dB 3:06 10-Jealousy
DR4 0.00 dB -4.76 dB 3:22 11-Hard To Please
DR10 -2.92 dB -14.51 dB 4:01 12-Angel

Uživatelský avatar
PetrD
Příspěvky: 853
Registrován: 01 pro 2013 19:06
Kontaktovat uživatele:

Re: Počúvate ešte CD ?

Příspěvek od PetrD »

Ramones píše:A ty hlášky, že hlasitý mastering je kvůli mobilům a jejich nedostatečnému výkonu ... jako vtip dobrý.
Není to pochopitelně jen kvůli mobilům, ale také . . . a samozřejmě to není vtip.
Ramones píše:Vše vzniklo z důvodu, že hlasitější skladba v rádiu vždy zaujme na první poslech lépe, než nějaká audiofilní nahrávka
A proč jsem tedy nikdy v žádném "rádiu" neslyšel muziku, kterou poslouchám a zároveň má zmršený mastering? :? Např. včera jsem si dal GREEN CARNATION - "The Quiet Offspring" (DR5 :evil: ), jen abych přesvědčil mého hosta o tom, že je to na hranici vypnutí. Myslíš si, že je někdy někde uslyším v nějakém rádiu? Myslíš si, že někdy někde uslyším např. kapelu "ZIP TANG", od které mám všechna CD a mastering některých z nich je na takové "úrovni", že nebýt to mí miláčci, nejspíš bych si originál nikdy nepořídil. Vůbec mi nebude vadit, když si "zvukoví inženýři" budou mršit tu hudbu, která se hrají v komerčních rádiích. Radši nebudu hodnotit to, kdo a na čem to poslouchá, těm je to úplně jedno. Proč ale(doprdelekurvafix) nemůžou být zvukově na výši alba skupin či interpretů, která nikdy v žádném komerčním rádiu hrát nebudou, poslouchají je většinou audiofilové, hifíci či fajnšmekři a Péťa je chce mít ve své sbírce? *fnuk* To prostě nikdy nepochopím :?
PS: I když otázka (ne)kvality CD víceméně s tématem souvisí, už je to přeci jen tak trochu *offtopic* Půjdu si radši ještě jednou poslechnout nové album švédské kapely jménem AGUSA, zda zvítězí touha vlastnit originál CD ;)
61lnzN-BmmL._SX466_.jpg

DR8 -1.68 dB -12.65 dB 10:30 01-Landet Längesen
DR9 -2.12 dB -12.62 dB 5:00 02-Sorgenfri
DR9 -2.11 dB -15.87 dB 8:34 03-Den förtrollade skogen
DR10 -2.44 dB -14.95 dB 9:21 04-Sagor från Saaris
DR9 -1.57 dB -13.64 dB 10:19 05-Bortom hemom
Official DR value: DR9

Mastering na hraně, ale muzika pro moje uši jak dělaná *thumbs up*

merhaut

Re: Počúvate ešte CD ?

Příspěvek od merhaut »

Hlasitý mastering bez dynamiky opravdu nesouvisí s mobily, to je totální nesmysl.

Uživatelský avatar
Karel1
Příspěvky: 304
Registrován: 05 led 2015 13:24
Kontaktovat uživatele:
Vybavení

Re: Počúvate ešte CD ?

Příspěvek od Karel1 »

Mám jednoduchou otázku - když "válka hlasitostí" souvisí s poslechem hudby v rozhlase, proč prochází kompresí hudba, kterou tam nezahrají? Nesouvisí to i s tím, že takové CD se dobře poslouchá při jízdě autem nebo přes sluchátka při chůzi?

Odpovědět

Kdo je online

Uživatelé prohlížející si toto fórum: Žádní registrovaní uživatelé a 1 host