Příšerná kvalita originálních CD

CD, SACD, HDCD, DVD, DVDAudio, BluRay, streamovaní, formáty, média, online služby, playery, digitální knižnice a vše kolem digitálu
Odpovědět
Uživatelský avatar
lidumil
Příspěvky: 1275
Registrován: 04 dub 2011 21:02
Kontaktovat uživatele:
Vybavení

Re: Příšerná kvalita originálních CD

Příspěvek od lidumil »

Tak jsem se dnes odhodlal změřit DR mých oblíbených RUSH *2thumbsup*

foobar2000 1.3.8 / Dynamic Range Meter 1.1.1
log date: 2015-04-09 20:36:09

--------------------------------------------------------------------------------
Analyzed: Rush / Moving Pictures SHM CD
--------------------------------------------------------------------------------

DR Peak RMS Duration Track
--------------------------------------------------------------------------------
DR14 -0.08 dB -15.17 dB 4:37 01-Tom Sawyer
DR14 -0.08 dB -15.90 dB 6:13 02-Red Barchetta
DR14 -0.08 dB -16.19 dB 4:27 03-YYZ
DR14 -0.08 dB -15.47 dB 4:23 04-Limelight
DR14 -0.08 dB -16.26 dB 11:01 05-The Camera Eye
DR13 -0.08 dB -16.31 dB 4:47 06-Witch Hunt (Part III of Fear
DR14 -0.08 dB -16.07 dB 4:49 07-Vital Signs
--------------------------------------------------------------------------------

Number of tracks: 7
Official DR value: DR14

Samplerate: 44100 Hz
Channels: 2
Bits per sample: 16
Bitrate: 1411 kbps
Codec: CDDA

Uživatelský avatar
PetrD
Příspěvky: 853
Registrován: 01 pro 2013 19:06
Kontaktovat uživatele:

Re: Příšerná kvalita originálních CD

Příspěvek od PetrD »

Skvělá deska, nezkurvený mastering *thumbs up*
Kámoš má výlisek z roku 1984 (snad se nepletu) a zní famózně *thumbs up* Že by to byl on? ;)

Uživatelský avatar
lidumil
Příspěvky: 1275
Registrován: 04 dub 2011 21:02
Kontaktovat uživatele:
Vybavení

Re: Příšerná kvalita originálních CD

Příspěvek od lidumil »

EE, tohle je Japan SHM-CD

Uživatelský avatar
jirie
Příspěvky: 767
Registrován: 03 pro 2008 11:35
Kontaktovat uživatele:

Re: Příšerná kvalita originálních CD

Příspěvek od jirie »

Tahle SHM-CD edice RUSH je jedna z mála nezmršených.

SHM-CD YES to je teprve "nářez" *thumbs down*

http://dr.loudness-war.info/album/view/13508

http://dr.loudness-war.info/album/view/4006

*fnuk*

Uživatelský avatar
PetrD
Příspěvky: 853
Registrován: 01 pro 2013 19:06
Kontaktovat uživatele:

Re: Příšerná kvalita originálních CD

Příspěvek od PetrD »

lidumil píše:EE, tohle je Japan SHM-CD
...jj...už jsem si všiml ;)

Uživatelský avatar
fox
Příspěvky: 2127
Registrován: 07 črc 2008 10:03
Kontaktovat uživatele:
Vybavení

Re: Příšerná kvalita originálních CD

Příspěvek od fox »

Close To The Edge má divný zvuk od jeho prvního vydání. Nepamatuji si, že bych ho někdy slyšel extra kvalitně. Z hovna bič neupleteš. :)

Uživatelský avatar
lidumil
Příspěvky: 1275
Registrován: 04 dub 2011 21:02
Kontaktovat uživatele:
Vybavení

Re: Příšerná kvalita originálních CD

Příspěvek od lidumil »

Neměřil jsem, ale poslechově snad ještě horší jsou SHM-CD Black Sabbath. Vol.4 je teprve pr*ser.

Uživatelský avatar
PetrD
Příspěvky: 853
Registrován: 01 pro 2013 19:06
Kontaktovat uživatele:

Re: Příšerná kvalita originálních CD

Příspěvek od PetrD »

fox píše: . . . z hovna bič neupleteš. :)
. . . a když se ti to náhodou podaří, nezapráskáš :(


Uživatelský avatar
PetrD
Příspěvky: 853
Registrován: 01 pro 2013 19:06
Kontaktovat uživatele:

Re: Příšerná kvalita originálních CD

Příspěvek od PetrD »

Kdo by to byl řekl *jupi* *hura*

Uživatelský avatar
lidumil
Příspěvky: 1275
Registrován: 04 dub 2011 21:02
Kontaktovat uživatele:
Vybavení

Re: Příšerná kvalita originálních CD

Příspěvek od lidumil »

PetrD píše:
fox píše: . . . z hovna bič neupleteš. :)
. . . a když se ti to náhodou podaří, nezapráskáš :(
A když zapráskáš, tak jenom sebe :o

Uživatelský avatar
PetrD
Příspěvky: 853
Registrován: 01 pro 2013 19:06
Kontaktovat uživatele:

Re: Příšerná kvalita originálních CD

Příspěvek od PetrD »

Jeden z mých nej... zážitů :( je již staršího data. Kolega z práce, velký fanda Metallicy, mi tenkrát půjčil "Death Magnetic" (Japan SHM-CD) :lol: Po druhé skladbě, kdy jsem se ujistil, že můj aparát je v pořádku, byla produkce ukončena se slovy . . . "no jo no, dětma nezatopíš". Až později jsem zjistil, proč :shock: http://dr.loudness-war.info/album/view/44161. Pak jsem jim dal ještě jednu šanci kvůli Lou Reedovi (album Lulu je příšerné, a navíc toto...http://dr.loudness-war.info/album/view/12856). Od té doby pro mě tato kapela přestala existovat.

PS: A když se zatopit podaří, oheň neudržíš *fnuk*

Uživatelský avatar
lidumil
Příspěvky: 1275
Registrován: 04 dub 2011 21:02
Kontaktovat uživatele:
Vybavení

Re: Příšerná kvalita originálních CD

Příspěvek od lidumil »

Dnes jsem zkusil Genesis - mohlo by to ale být lepší:

foobar2000 1.3.8 / Dynamic Range Meter 1.1.1
log date: 2015-04-14 09:46:18

--------------------------------------------------------------------------------
Analyzed: Genesis / Trespass - Japan - SHM CD - VJCP- 98015
--------------------------------------------------------------------------------

DR Peak RMS Duration Track
--------------------------------------------------------------------------------
DR8 0.00 dB -11.39 dB 7:04 01-Looking for Someone
DR10 0.00 dB -14.10 dB 6:44 02-White Mountain
DR9 0.00 dB -12.08 dB 6:50 03-Visions of Angels
DR8 0.00 dB -12.80 dB 8:46 04-Stagnation
DR13 0.00 dB -15.52 dB 4:10 05-Dusk
DR8 0.00 dB -10.82 dB 8:56 06-The Knife
--------------------------------------------------------------------------------

Number of tracks: 6
Official DR value: DR9

Samplerate: 44100 Hz
Channels: 2
Bits per sample: 16
Bitrate: 1411 kbps
Codec: CDDA

Uživatelský avatar
PetrD
Příspěvky: 853
Registrován: 01 pro 2013 19:06
Kontaktovat uživatele:

Re: Příšerná kvalita originálních CD

Příspěvek od PetrD »

Mám toto CD Japan VJCP - 68091 . . . DR13 :)
PS: Ale to už asi nepatří do " příšerná kvalita..." ;)

Uživatelský avatar
lidumil
Příspěvky: 1275
Registrován: 04 dub 2011 21:02
Kontaktovat uživatele:
Vybavení

Re: Příšerná kvalita originálních CD

Příspěvek od lidumil »

Taky nic moc :(

foobar2000 1.3.8 / Dynamic Range Meter 1.1.1
log date: 2015-04-14 22:52:16

--------------------------------------------------------------------------------
Analyzed: Genesis / Nursery Cryme - SHM CD - VJCP 98016
--------------------------------------------------------------------------------

DR Peak RMS Duration Track
--------------------------------------------------------------------------------
DR8 0.00 dB -11.78 dB 10:30 01-The Musical Box
DR11 -4.03 dB -17.58 dB 1:48 02-For Absent Friends
DR9 0.00 dB -11.91 dB 8:09 03-The Return of the Giant Hogweed
DR9 0.00 dB -13.11 dB 5:08 04-Seven Stones
DR10 0.00 dB -12.48 dB 3:01 05-Harold the Barrel
DR10 0.00 dB -14.67 dB 2:56 06-Harlequin
DR8 0.00 dB -11.44 dB 8:02 07-The Fountain of Salmacis
--------------------------------------------------------------------------------

Number of tracks: 7
Official DR value: DR9

Samplerate: 44100 Hz
Channels: 2
Bits per sample: 16
Bitrate: 1411 kbps
Codec: CDDA

Odpovědět

Kdo je online

Uživatelé prohlížející si toto fórum: Žádní registrovaní uživatelé a 1 host