Příšerná kvalita originálních CD

CD, SACD, HDCD, DVD, DVDAudio, BluRay, streamovaní, formáty, média, online služby, playery, digitální knižnice a vše kolem digitálu
Odpovědět
Uživatelský avatar
PetrD
Příspěvky: 853
Registrován: 01 pro 2013 19:06
Kontaktovat uživatele:

Re: Příšerná kvalita originálních CD

Příspěvek od PetrD »

Mám "Nursery Cryme" Japan VJCP - 68095 . . . DR12

Uživatelský avatar
lidumil
Příspěvky: 1275
Registrován: 04 dub 2011 21:02
Kontaktovat uživatele:
Vybavení

Re: Příšerná kvalita originálních CD

Příspěvek od lidumil »

Pěkně mě lakuješ, VJCP-6895 Nursery Cryme nevyšlo, bylo .....92 http://www.discogs.com/Genesis-Nursery- ... se/3869830

Nicméně i přes nízké DR mi to do auta celkem stačí *2thumbsup*

Uživatelský avatar
PetrD
Příspěvky: 853
Registrován: 01 pro 2013 19:06
Kontaktovat uživatele:

Re: Příšerná kvalita originálních CD

Příspěvek od PetrD »

Sakra . . . máš pravdu, lakuju tě ;) Překoukl jsem se, ten údaj patřil k albu "Selling England By The Pound", omlouvám se za mystyfikaci.
"Nursery Cryme" mám VJCP - 68092 (DR12).
Takhle to bude jednoduší . . . ;)
Obrázek

Uživatelský avatar
PetrD
Příspěvky: 853
Registrován: 01 pro 2013 19:06
Kontaktovat uživatele:

Re: Příšerná kvalita originálních CD

Příspěvek od PetrD »

Ale abychom se vrátili k tématu "příšerná kvalita . . ."
Co mě opravdu dostalo, je toto 10 let staré album kapely Green Carnation (mám komplet)
Obrázek

foobar2000 1.2.9 / Dynamic Range Meter 1.1.1
--------------------------------------------------------------------------------
Analyzed: Green Carnation / The Quiet Offspring
--------------------------------------------------------------------------------
DR Peak RMS Duration Track
--------------------------------------------------------------------------------
DR5 -0.20 dB -6.65 dB 4:00 01-The Quiet Offspring
DR5 -0.20 dB -6.62 dB 4:10 02-Between The Gentle Small And The Standing Tall
DR5 -0.20 dB -5.94 dB 5:10 03-Just When You Think Its Safe
DR5 -0.20 dB -9.22 dB 5:20 04-A Place For Me
DR5 -0.20 dB -6.36 dB 5:02 05-The Everlasting Moment
DR5 -0.20 dB -6.01 dB 4:05 06-Purple Door, Pitch Black
DR6 -0.20 dB -8.51 dB 4:38 07-Chlids Play - Part I
DR5 -0.20 dB -6.33 dB 5:18 08-Dead But Dreaming
DR5 -0.20 dB -6.57 dB 5:50 09-Pile Of Doubt
DR5 -0.20 dB -7.86 dB 7:14 10-When I Was You
DR7 -0.27 dB -12.28 dB 4:14 11-Childs Play - Part II
--------------------------------------------------------------------------------
Number of tracks: 11
Official DR value: DR5

Samplerate: 44100 Hz
Channels: 2
Bits per sample: 16
Bitrate: 1411 kbps
Codec: CDDA



Bez komentáře :(

Uživatelský avatar
lidumil
Příspěvky: 1275
Registrován: 04 dub 2011 21:02
Kontaktovat uživatele:
Vybavení

Re: Příšerná kvalita originálních CD

Příspěvek od lidumil »

foobar2000 1.3.8 / Dynamic Range Meter 1.1.1
log date: 2015-04-15 00:26:01

--------------------------------------------------------------------------------
Analyzed: Genesis / 1970–1975 SHM CD - VJCP 98017
--------------------------------------------------------------------------------

DR Peak RMS Duration Track
--------------------------------------------------------------------------------
DR8 0.00 dB -11.67 dB 7:23 01-Watcher of the Skies
DR10 0.00 dB -13.40 dB 4:46 02-Time Table
DR10 0.00 dB -12.53 dB 8:36 03-Get 'Em Out by Friday
DR9 0.00 dB -12.24 dB 5:45 04-Can-Utility and the Coastliners
DR11 0.00 dB -14.99 dB 1:41 05-Horizons
DR9 0.00 dB -12.64 dB 23:06 06-Supper's Ready
--------------------------------------------------------------------------------

Number of tracks: 6
Official DR value: DR10

Samplerate: 44100 Hz
Channels: 2
Bits per sample: 16
Bitrate: 1411 kbps
Codec: CDDA

Uživatelský avatar
lidumil
Příspěvky: 1275
Registrován: 04 dub 2011 21:02
Kontaktovat uživatele:
Vybavení

Re: Příšerná kvalita originálních CD

Příspěvek od lidumil »

foobar2000 1.3.8 / Dynamic Range Meter 1.1.1
log date: 2015-04-15 01:43:20

--------------------------------------------------------------------------------
Analyzed: Genesis / The Lamb Lies Down On Broadway Disc 1 - SHM CD - VJCP 98019
--------------------------------------------------------------------------------

DR Peak RMS Duration Track
--------------------------------------------------------------------------------
DR8 0.00 dB -10.22 dB 4:52 01-The Lamb Lies Down on Broadway
DR7 -0.01 dB -10.51 dB 2:45 02-Fly on a Windshield
DR9 -0.01 dB -12.09 dB 2:11 03-Broadway Melody of 1974
DR9 -0.03 dB -12.20 dB 2:13 04-Cuckoo Cocoon
DR7 0.00 dB -9.63 dB 8:12 05-In the Cage
DR8 0.00 dB -11.46 dB 2:46 06-The Grand Parade of Lifeless Packaging
DR7 0.00 dB -9.25 dB 5:45 07-Back in N.Y.C.
DR8 -0.02 dB -12.55 dB 2:10 08-Hairless Heart
DR8 0.00 dB -9.69 dB 3:41 09-Counting Out Time
DR7 0.00 dB -10.60 dB 5:15 10-The Carpet Crawlers
DR8 0.00 dB -11.57 dB 5:45 11-The Chamber of 32 Doors
--------------------------------------------------------------------------------

Number of tracks: 11
Official DR value: DR8

Samplerate: 44100 Hz
Channels: 2
Bits per sample: 16
Bitrate: 1411 kbps
Codec: CDDA

Uživatelský avatar
lechos
Příspěvky: 4399
Registrován: 09 pro 2008 08:34
Kontaktovat uživatele:
Vybavení

Re: Příšerná kvalita originálních CD

Příspěvek od lechos »

Já poslouchám hudbu která se mi líbí, ne fiktivní cifry analyzátoru :lol:

Renown
Příspěvky: 2315
Registrován: 18 dub 2008 10:22
Kontaktovat uživatele:
Vybavení

Re: Příšerná kvalita originálních CD

Příspěvek od Renown »

Mně tak strašně vadí nízké DR, že nemohu poslouchat ani hudbu, která by se mi bývala líbila, kdyby měla patřičné DR.
MP3 s DR=13 je pro mne daleko zábavnější poslech než CD s DR=6.
Připouštím, že je to jistý druh deformace, a že 99% lidí nízký DR vůbec nevnímá, ale co s tím mohu dělat ?

Uživatelský avatar
PítrsPraha
Příspěvky: 3886
Registrován: 05 pro 2013 10:13
Kontaktovat uživatele:
Vybavení

Re: Příšerná kvalita originálních CD

Příspěvek od PítrsPraha »

cough píše:
PítrsPraha píše:
cough píše:Které to jsou?
Např. Má Vlast, dr. Václav Smetáček, Supraphon 1987. Rozdíl v hlasitosti jednotlivých pasáží opravdu veliký, ale celkově je zvuk placatý, bez rozlišení a dynamiky, dutý, bez těla a přirozený hutnosti nástrojů.
Takže zvuk, kterej je placatej a "vykradenej", nemůžu považovat za dynamickej, i když by v takový skladbě byly velký rozdíly mezi tichou a hlasitou pasáží.
Uvedenou nahravku jsem si zbezne poslechl. Je z roku 1980, vydani na CD bylo pochopitelne pozdeji. Neshledavam na ni nejake zasadni chyby uvedene vyse, spise naopak. Mozna jsou to nadrealisticka ocekavani toho, jak Ma Vlast muze v Rudolfinu znit z nahravky. Mozna by stalo za to si to pravidelneji ocuchat na zivo a pak se zamyslet nad vlastnimi ocekavanimi z reprodukovane hudby, jestli neni problem v aparature/akustice mistnosti. Nadrealny orchestralni svet je bohuzel jen fantazii...
Upřímně řečeno nevím, jakého nejlepšího výsledku lze dosáhnout nahráváním Mé Vlasti v Rudolfinu. Na koncertě jsem tam byl cca 10x, na klasické hudbě celkově (i v jiných prostorech) tak 50x... Takže představu o tom, jak zní orchestr naživo jakž takž mám. Není to o mých nadrealiatických očekáváních ani o problémech v řetězci / akustice. To by se mi řetězec a akustika musely měnit s každou nahrávkou, protože mám i ty skvěle znějící.
Ale řetězec je nižší střední až střední třídy, tak je možný, že na špičkové sestavě by i tahle Má Vlast zněla plněji, reálněji, lépe.

Uživatelský avatar
lechos
Příspěvky: 4399
Registrován: 09 pro 2008 08:34
Kontaktovat uživatele:
Vybavení

Re: Příšerná kvalita originálních CD

Příspěvek od lechos »

Velmi správně, Renowne ! 99% lidi neví co je DR faktor, já (teoreticky) ano bo čtu HiFi názory.

Paul
Příspěvky: 576
Registrován: 19 říj 2008 12:19
Kontaktovat uživatele:

Re: Příšerná kvalita originálních CD

Příspěvek od Paul »

-že by se "pomalinku" blýskalo na lepší časy...?
http://www.echoes-zine.cz/ozveny/loudne ... vni-ztraty,

Uživatelský avatar
PetrD
Příspěvky: 853
Registrován: 01 pro 2013 19:06
Kontaktovat uživatele:

Re: Příšerná kvalita originálních CD

Příspěvek od PetrD »

Renown píše:Mně tak strašně vadí nízké DR, že nemohu poslouchat ani hudbu, která by se mi bývala líbila, kdyby měla patřičné DR.
MP3 s DR=13 je pro mne daleko zábavnější poslech než CD s DR=6.
Připouštím, že je to jistý druh deformace, a že 99% lidí nízký DR vůbec nevnímá, ale co s tím mohu dělat ?
Mám to podobně ;) Někdy ale prostě není zbytí *fnuk* U některých kapel, u nichž od jejich vzniku sbírám orig. CD, není výběr a musíme vzít za vděk s tím, co je (např. Pearl Jam, Ayreon...). Proto jsem si tak oblíbil Jethro Tull a tak často je poslouchám . . . skvělá hudba, výborná kvalita nahrávky (nemám žádné album pod DR10 ;), i to je výjimka)
PS: Příjemně mě překvapil remastered Pink Floyd z roku 2011, včera večer před spaním jsem dal "Animals" . . . DR13 *thumbs up*

Uživatelský avatar
PetrD
Příspěvky: 853
Registrován: 01 pro 2013 19:06
Kontaktovat uživatele:

Re: Příšerná kvalita originálních CD

Příspěvek od PetrD »

lechos píše:Já poslouchám hudbu která se mi líbí, ne fiktivní cifry analyzátoru :lol:
A my všichni, co sledujeme kvalitu nahrávky, posloucháme hudbu, která se nám nelíbí *hura*

Uživatelský avatar
PítrsPraha
Příspěvky: 3886
Registrován: 05 pro 2013 10:13
Kontaktovat uživatele:
Vybavení

Re: Příšerná kvalita originálních CD

Příspěvek od PítrsPraha »

lechos píše:Já poslouchám hudbu která se mi líbí, ne fiktivní cifry analyzátoru
Co je probůh na reálné dynamice nahrávky fiktivního ;-)?

Renown
Příspěvky: 2315
Registrován: 18 dub 2008 10:22
Kontaktovat uživatele:
Vybavení

Re: Příšerná kvalita originálních CD

Příspěvek od Renown »

Proto jsem si tak oblíbil Jethro Tull a tak často je poslouchám . . . skvělá hudba, výborná kvalita nahrávky (nemám žádné album pod DR10 ;), i to je výjimka)
Inspiroval jsi mě :-) Jethro Tull - Heavy Horses (DR jednotlivých skladeb mezi 13 a 14) perfektní

Odpovědět

Kdo je online

Uživatelé prohlížející si toto fórum: Žádní registrovaní uživatelé a 1 host