Příšerná kvalita originálních CD

CD, SACD, HDCD, DVD, DVDAudio, BluRay, streamovaní, formáty, média, online služby, playery, digitální knižnice a vše kolem digitálu
Odpovědět
Uživatelský avatar
PMA
Příspěvky: 1911
Registrován: 23 úno 2009 10:47
Kontaktovat uživatele:
Vybavení

Re: Příšerná kvalita originálních CD

Příspěvek od PMA »

O CD vydávaných někdy začátkem devadesátých let tu chlapci určitě nemluví. Loudness wars naplno vypukly až tak kolem r. 2000 a později a nyní již dosáhly téměř dokonalosti - výsledek je ten, že komerční většinové žánry se pro míru dynamické komprese nedají prakticky poslouchat (pozor, není to otázka mp3 a ztrátové komprese, která ubírá subjektivně "nepodstatnou" informaci - můžeme polemizovat zda je nepodstatná - ale nesahá takhle do dynamiky), díky vyrovnání tichých a hlasitých pasáží. Jedině menšinové žánry jako klasika a něco z jazzu je ještě natočené slušně, přičemž u popularizační klasiky to často taky neplatí (např. Vivaldianno/Svěcený). Trvá to už tak dlouho, že mladší generace to převezmou jako normu a nebudou nic jiného znát, jelikož reedice starších titulů jsou často též postižené.

svartenatt
Příspěvky: 870
Registrován: 13 čer 2016 04:17
Kontaktovat uživatele:
Vybavení

Re: Příšerná kvalita originálních CD

Příspěvek od svartenatt »

Řekl bych, že se v poslední době dynamika u nekomerční rockové a metalové produkce zlepšuje. Jak správně poznamenal PMA, kolem milénia to bylo nejhorší a dynamika bývala na úrovni DR5 nebo DR6. Teď se najdou nad DR10, třeba D. Townsend - Iceland nebo Kauan - Sorni Nai.
Komerční produkce nechť je klidně nekvalitní, protože mládeži stejně stačí jen mp3 a obsah sdělení.
Jen mě mrzí remastery, které většinou tu původní obstojnou dynamiku zdevastují.

Fox25
Příspěvky: 131
Registrován: 15 lis 2014 12:27
Kontaktovat uživatele:

Re: Příšerná kvalita originálních CD

Příspěvek od Fox25 »

Je to jak píše PMA, CD vydané kolem roku 2000 jsou už takové, že se až na světlé výjimky nedají bez zásahu ReLife poslouchat, u novějších věcí už nepomůže ani ReLife. Když si vezmu album Sigh No More od Mumford & Sons, to je nahrané tak, že občas chrčí i hlas a postrádá to dynamiku. Přitom se nejedná o pop, respektive to není běžná hudba kterou by poslouchaly masy(folk rock). Už jsem CD držel v prackách že si ho koupím, ovšem 500 korun není pro mě bohužel málo a nakonec jsem prodavači řekl že si jej pro jistotu stáhnu a zkontroluji zda bude hrát normálně. Na to mi pouze řekl že se mi nediví a že to chápe. Při další návštěvě mi prozradil že si to album taky poslechl a že to vypínal v půli první skladby, že to spíš připomíná folk-noise.

Taky mám velmi rád styl Ambient-Industrial, Strom Noir, Machinefabriek, Opitope, vesměs se jedná o "one man show" a asi díky tomu že to nemají v prackách velké vydavatelství se to dá bez problémů poslouchat.

PMA
Vivaldinno je podle mě strašné bez ohledu na mastering, chvílemi mi to připomínalo hudbu z videí pro BOZP školení. Autor se motá tam a zpět jakoby nevěděl co vlastně s tím chce dělat. Pokud by to byla vlastní kompozice prosím, ale pak už by to asi nebyla popularizační klasika. To už raději Vanessa Mae, v podstatě díky této ženě jsem se dostal na tu správnou "vlnu" a teď poslouchám téměř výhradně klasiku, ale jak jsou na tom její novější alba co se týká masteringu, netuším.
Ale to pravé jsou Talianske koncerty z Podolínca. Buď je záznam už špatně nahraný, nebo to do rukou dostal "mistr" zvukař, případně kombinace obojího.

sekal
Příspěvky: 1485
Registrován: 11 bře 2010 14:30

Re: Příšerná kvalita originálních CD

Příspěvek od sekal »

Vivaldianno se Svěceným je odpad i obsahově. Stejně tak i obdobný projekt Šporcla - SPORCELAIN. V. Mae patří do kategorie druholigových houslistek natáčejících tomu adekvátní sra*ky.

Fox25
Příspěvky: 131
Registrován: 15 lis 2014 12:27
Kontaktovat uživatele:

Re: Příšerná kvalita originálních CD

Příspěvek od Fox25 »

V. Mae může hrát druhé housle a dnes už ji neposlouchám, nicméně její CD půjčuji ihned pokud někdo má rád pop a pokud dotyčného alespoň trochu zaujme klasika. Takhle jsem na klasiku přivedl asi už 5 lidí, přičemž si tři z nich dokonce pořídili lepší aparaturu protože jim poslech na běžných bedničkách, či sluchátkách prostě nevyhovoval.

Uživatelský avatar
jirie
Příspěvky: 767
Registrován: 03 pro 2008 11:35
Kontaktovat uživatele:

Re: Příšerná kvalita originálních CD

Příspěvek od jirie »

Dobrá návnada na klasiku jsou SKY. Každý z hudebníků má velice slušné hudební vzdělání.Celkem vydali cca 5 alb, která obsahují kromě několika profláknutých aranží i spoustu jejich vlastních kompozic. Zvuková kvalita hlavně prvního vydání je velmi dobrá.

Uživatelský avatar
olympus720
Příspěvky: 115
Registrován: 31 bře 2012 16:53
Kontaktovat uživatele:
Vybavení

Re: Příšerná kvalita originálních CD

Příspěvek od olympus720 »

svartenatt píše:Řekl bych, že se v poslední době dynamika u nekomerční rockové a metalové produkce zlepšuje. Jak správně poznamenal PMA, kolem milénia to bylo nejhorší a dynamika bývala na úrovni DR5 nebo DR6. Teď se najdou nad DR10, třeba D. Townsend - Iceland nebo Kauan - Sorni Nai.
Komerční produkce nechť je klidně nekvalitní, protože mládeži stejně stačí jen mp3 a obsah sdělení.
Jen mě mrzí remastery, které většinou tu původní obstojnou dynamiku zdevastují.
)

Kvalitní desku s dobrou dynamikou většinou najdu u méně známé kapely, která to CD vydala u nezávislého labelu, nebo vydala sama. Jakmile to je větší firma, zvuk a dynamika je v pr..li. Celkem dobrý zvuk mají poslední dobou rockové, bluesové, prog rock metalové desky, občas nějaký hard rock, ale jakmile se přiostří žánry, tak jde kvalita dolů. Hardcore, metalcore, thrash metal, EBM, tam Loudness War zuří naplno i v roce 2016.

Uživatelský avatar
lechos
Příspěvky: 4385
Registrován: 09 pro 2008 08:34
Kontaktovat uživatele:
Vybavení

Re: Příšerná kvalita originálních CD

Příspěvek od lechos »

něco málo přispěji k tématu digitál muzika a stříbrná placka dnešních dnů
http://www.audiodrom.net/cs/jak-to-vidi ... a-do-pekel

svartenatt
Příspěvky: 870
Registrován: 13 čer 2016 04:17
Kontaktovat uživatele:
Vybavení

Re: Příšerná kvalita originálních CD

Příspěvek od svartenatt »

Zajímavé srovnání posledního alba ANATHEMA - The Optimist.

LP:

Analyzed: Anathema / The Optimist (Vinyl)
--------------------------------------------------------------------------------

DR Peak RMS Duration Track
--------------------------------------------------------------------------------
DR12 -8.22 dB -29.65 dB 1:18 A1-32.63N 117.14W
DR12 -0.30 dB -15.08 dB 4:25 A2-Leaving It Behind
DR11 -1.55 dB -15.57 dB 5:49 A3-Endless Ways
DR11 -0.60 dB -16.35 dB 5:36 A4-The Optimist
DR12 -1.05 dB -16.79 dB 4:59 B1-San Francisco
DR12 -0.30 dB -15.96 dB 5:47 B2-Springfield
DR11 -2.56 dB -16.87 dB 4:17 C1-Ghosts
DR11 -0.30 dB -13.33 dB 4:40 C2-Can't Let Go
DR13 -3.01 dB -20.92 dB 4:07 D1-Close Your Eyes
DR12 -1.02 dB -16.57 dB 7:33 D2-Back To The Start
DR11 -0.30 dB -15.99 dB 5:38 D2-Wildfires
--------------------------------------------------------------------------------

Uniklá nemasterovaná verze:

Analyzed: Anathema / The Optimist
--------------------------------------------------------------------------------

DR Peak RMS Duration Track
--------------------------------------------------------------------------------
DR13 -10.92 dB -28.70 dB 1:17 01-32.63N 117.14W
DR9 -1.66 dB -12.27 dB 4:27 02-Leaving It Behind
DR8 -1.68 dB -12.47 dB 5:52 03-Endless Ways
DR7 -1.74 dB -13.01 dB 5:35 04-The Optimist
DR9 -3.04 dB -15.66 dB 5:02 05-San Francisco
DR8 -1.75 dB -14.16 dB 5:56 06-Springfield
DR8 -5.45 dB -15.98 dB 4:17 07-Ghosts
DR8 -1.70 dB -12.32 dB 5:04 08-Can't Let Go
DR11 -3.98 dB -18.67 dB 3:40 09-Close Your Eyes
DR7 -1.85 dB -13.29 dB 5:40 10-Wildfires
DR8 -1.88 dB -15.15 dB 11:47 11-Back To The Start
--------------------------------------------------------------------------------

Konečné CD:

Analyzed: Anathema / The Optimist
--------------------------------------------------------------------------------

DR Peak RMS Duration Track
--------------------------------------------------------------------------------
DR13 -7.99 dB -26.01 dB 1:17 01-32.63N 117.14W
DR8 0.00 dB -9.99 dB 4:28 02-Leaving It Behind
DR7 0.00 dB -10.16 dB 5:50 03-Endless Ways
DR6 0.00 dB -10.79 dB 5:37 04-The Optimist
DR8 -1.10 dB -13.33 dB 5:00 05-San Francisco
DR8 0.00 dB -11.83 dB 5:50 06-Springfield
DR8 -3.65 dB -13.69 dB 4:17 07-Ghosts
DR8 0.00 dB -10.00 dB 5:01 08-Can't Let Go
DR10 -1.90 dB -16.33 dB 3:39 09-Close Your Eyes
DR7 -0.06 dB -10.98 dB 5:39 10-Wildfires
DR8 -0.08 dB -12.85 dB 11:43 11-Back to the Start
--------------------------------------------------------------------------------

Dasta
Příspěvky: 1056
Registrován: 15 led 2017 15:18
Kontaktovat uživatele:
Vybavení

Re: Příšerná kvalita originálních CD

Příspěvek od Dasta »

Svartenatt,
DR kolem8db je vdnesní době těžký nadstandard.Pro mně absolutně největší hrůza je. CD " Spirit of Man", sólový projekt zpěváka Magnum Boba Catleye.( DR4-5). CD Rush" Vapor Trails" zmiňované na Audiodromu jako odstrašující případ špatného masteringu je proti tomu audiofilní vychytávka

svartenatt
Příspěvky: 870
Registrován: 13 čer 2016 04:17
Kontaktovat uživatele:
Vybavení

Re: Příšerná kvalita originálních CD

Příspěvek od svartenatt »

To určitě, ta Anathema i ve finální podobě je dobrá, jen je vidět, že to mohlo být lepší.

Zrovna mám další DR tragédii:

Analyzed: Vintersorg / Till Fjälls Del Ii
--------------------------------------------------------------------------------

DR Peak RMS Duration Track
--------------------------------------------------------------------------------
DR4 0.00 dB -5.52 dB 6:55 01-Jökelväktaren
DR5 0.00 dB -6.17 dB 4:16 02-En Väldig Isvidds Karga Dräkt
DR5 0.00 dB -6.25 dB 6:59 03-Lavin
DR4 0.00 dB -6.22 dB 7:21 04-Fjällets Mäktiga Mur
DR4 0.00 dB -5.07 dB 5:26 05-Obygdens Pionjär
DR4 0.00 dB -5.80 dB 6:34 06-Vinterstorm
DR4 0.00 dB -5.29 dB 4:59 07-Tusenåriga Stråk
DR4 0.00 dB -5.37 dB 5:47 08-Allt Mellan Himmel Och Jord
DR5 0.00 dB -5.93 dB 3:25 09-Vårflod
DR4 0.00 dB -5.59 dB 6:46 10-Tillbaka Till Källorna
DR4 0.00 dB -5.32 dB 7:07 11-Köldens Borg
DR4 0.00 dB -5.20 dB 5:52 12-Portalen
DR6 0.00 dB -7.89 dB 5:16 13-Svart Måne
--------------------------------------------------------------------------------

Number of tracks: 13
Official DR value: DR4

Samplerate: 44100 Hz
Channels: 2
Bits per sample: 16
Bitrate: 914 kbps
Codec: FLAC

Uživatelský avatar
PetrD
Příspěvky: 853
Registrován: 01 pro 2013 19:06
Kontaktovat uživatele:

Re: Příšerná kvalita originálních CD

Příspěvek od PetrD »

Toto je jeden z důvodů, proč nákup originálních CD začínám markantně omezovat . . .
007.JPG
Analyzed: Queens of the Stone Age / Villains
--------------------------------------------------------------------------------
DR Peak RMS Duration Track
--------------------------------------------------------------------------------
DR5 0.00 dB -8.39 dB 5:42 01-Feet Don't Fail Me
DR4 -0.15 dB -6.73 dB 4:34 02-The Way You Used To Do
DR4 -0.14 dB -7.56 dB 5:20 03-Domesticated Animals
DR5 -0.19 dB -6.56 dB 5:27 04-Fortress
DR5 -0.08 dB -6.35 dB 3:21 05-Head Like A Haunted House
DR4 -0.12 dB -6.44 dB 6:41 06-Un-Reborn Again
DR6 -0.11 dB -7.81 dB 4:18 07-Hideaway
DR5 0.00 dB -6.48 dB 6:31 08-The Evil Has Landed
DR5 -0.08 dB -8.52 dB 6:09 09-Villains of Circumstance
--------------------------------------------------------------------------------
Number of tracks: 9
Official DR value: DR5

Samplerate: 44100 Hz
Channels: 2
Bits per sample: 16
Bitrate: 1411 kbps
Codec: CDDA

Uživatelský avatar
crommelin
Příspěvky: 51
Registrován: 12 zář 2017 18:58
Kontaktovat uživatele:

Re: Příšerná kvalita originálních CD

Příspěvek od crommelin »

Dnes již nová CD nekupuji. Jsou to zbytečně utracené money.

Uživatelský avatar
RedBaron
Příspěvky: 781
Registrován: 11 dub 2013 16:08
Kontaktovat uživatele:
Vybavení

Re: Příšerná kvalita originálních CD

Příspěvek od RedBaron »

Zdá se mi, že je to snad cílená manipulace s účelem placky časem všem znechutit a úplně vyhladit. Přitom technicky má médium na skvělý zvuk naprosto dostatečné parametry, dobře víme, že když se to povede, je to nádhera.

Uživatelský avatar
lechos
Příspěvky: 4385
Registrován: 09 pro 2008 08:34
Kontaktovat uživatele:
Vybavení

Re: Příšerná kvalita originálních CD

Příspěvek od lechos »

může být...ale nebejt těch DR analýz tak to možná ani nevíme

Odpovědět

Kdo je online

Uživatelé prohlížející si toto fórum: Žádní registrovaní uživatelé a 1 host