Příšerná kvalita originálních CD

CD, SACD, HDCD, DVD, DVDAudio, BluRay, streamovaní, formáty, média, online služby, playery, digitální knižnice a vše kolem digitálu
Odpovědět
vanav
Příspěvky: 64
Registrován: 25 zář 2008 07:30
Kontaktovat uživatele:

Re: Příšerná kvalita originálních CD

Příspěvek od vanav »

Já ty Red Hoty sehnal dokonce s průměrným DR15 ;)

foobar2000 1.3.6 / Dynamic Range Meter 1.1.1
log date: 2015-04-09 06:32:59

--------------------------------------------------------------------------------
Analyzed: Red Hot Chili Peppers / Californication(BrickwallHater Remaster)
--------------------------------------------------------------------------------

DR Peak RMS Duration Track
--------------------------------------------------------------------------------
DR14 -1.27 dB -17.24 dB 3:59 01-Around the World
DR15 -0.10 dB -17.01 dB 4:27 02-Parallel Universe
DR13 -1.82 dB -17.40 dB 3:32 03-Scar Tissue
DR15 -0.16 dB -16.88 dB 4:14 04-Otherside
DR15 -0.04 dB -16.04 dB 3:18 05-Get on Top
DR15 -0.24 dB -17.55 dB 5:17 06-Californication
DR14 -0.54 dB -16.95 dB 3:42 07-Easily
DR15 -1.95 dB -19.45 dB 2:44 08-Porcelain
DR15 -1.12 dB -17.89 dB 3:59 09-Emit Remmus
DR15 -0.25 dB -16.81 dB 2:38 10-I Like Dirt
DR16 -0.08 dB -18.79 dB 3:45 11-This Velvet Glove
DR14 -2.08 dB -18.29 dB 4:52 12-Savior
DR15 -0.63 dB -17.39 dB 4:13 13-Purple Stain
DR16 -0.25 dB -17.24 dB 1:50 14-Right on Time
DR11 -6.19 dB -19.47 dB 3:26 15-Road Trippin'
--------------------------------------------------------------------------------

Number of tracks: 15
Official DR value: DR15

Samplerate: 44100 Hz
Channels: 2
Bits per sample: 16
Bitrate: 715 kbps
Codec: FLAC
================================================================================

Uživatelský avatar
jirie
Příspěvky: 767
Registrován: 03 pro 2008 11:35
Kontaktovat uživatele:

Re: Příšerná kvalita originálních CD

Příspěvek od jirie »

Jen malé srovnání:
Red hot chili peppers.jpg

Dasta
Příspěvky: 1056
Registrován: 15 led 2017 15:18
Kontaktovat uživatele:
Vybavení

Re: Příšerná kvalita originálních CD

Příspěvek od Dasta »

Valderon,
Máš li zájem, mohu nové cd Red Hot. sehnat kolem 180k.

Uživatelský avatar
PetrD
Příspěvky: 853
Registrován: 01 pro 2013 19:06
Kontaktovat uživatele:

Re: Příšerná kvalita originálních CD

Příspěvek od PetrD »

A jaké vydání máš na mysli? Já to z roku 1999 daroval zadarmo :x

Dasta
Příspěvky: 1056
Registrován: 15 led 2017 15:18
Kontaktovat uživatele:
Vybavení

Re: Příšerná kvalita originálních CD

Příspěvek od Dasta »

Mám na mysli vydání z roku 2013, vydání z roku 99 by se dalo nabízet pouze jako odstrašující příklad.

Uživatelský avatar
lechos
Příspěvky: 4385
Registrován: 09 pro 2008 08:34
Kontaktovat uživatele:
Vybavení

Re: Příšerná kvalita originálních CD

Příspěvek od lechos »

Karel1 píše:
24 říj 2017 16:12
Lechosi, promiň, ale ty jen dokazuješ, že jsi ještě blbější, než jsme si mysleli :o
Vy si, kolego moudrej vykáte ? a důvod ?

Uživatelský avatar
RedBaron
Příspěvky: 781
Registrován: 11 dub 2013 16:08
Kontaktovat uživatele:
Vybavení

Re: Příšerná kvalita originálních CD

Příspěvek od RedBaron »

On si "myká" - my král :lol:

Uživatelský avatar
PítrsPraha
Příspěvky: 3884
Registrován: 05 pro 2013 10:13
Kontaktovat uživatele:
Vybavení

Re: Příšerná kvalita originálních CD

Příspěvek od PítrsPraha »

...nebo mluví za názor více lidí ;-)

Uživatelský avatar
PetrD
Příspěvky: 853
Registrován: 01 pro 2013 19:06
Kontaktovat uživatele:

Re: Příšerná kvalita originálních CD

Příspěvek od PetrD »

Já se nesměle připojuji ;)

Uživatelský avatar
Karel1
Příspěvky: 304
Registrován: 05 led 2015 13:24
Kontaktovat uživatele:
Vybavení

Re: Příšerná kvalita originálních CD

Příspěvek od Karel1 »

Reaguji na to, jak tu řešíte co a jak jsem napsal a jak si můžu dovolit mluvit za jiné ("Lechosi, promiň, ale ty jen dokazuješ, že jsi ještě blbější, než jsme si mysleli") :? Omlouvám se těm, kteří si to nemyslí, bylo to něco ve smyslu filmu "Ještě větší blbec, než jsme doufali". Psal jsem to pochopitelně sám za sebe. Omlouvám se i Lechosovi, ale prostě jsem to nevydržel a musel jsem na ty jeho hámotiny reagovat. Lechosi, jestliže nepoznáš dobrou nahrávku od zmršené, gratuluji ti a buď rád. Ať už je to díky tomu, na čem posloucháš nebo ušima není podstatné, važ si toho a užívej si. Hudbě zdar :)

Uživatelský avatar
PetrD
Příspěvky: 853
Registrován: 01 pro 2013 19:06
Kontaktovat uživatele:

Re: Příšerná kvalita originálních CD

Příspěvek od PetrD »

Neodolal jsem, musím to sem písnou :cry: Už dlouho se mi nestalo, abych při poslechu muziky začal pátrat, zda se něco neděje s aparátkem :shock: (zda někdy?). Až dnes :twisted: . . . NINE INCH NAILS - "Add Violence", EP z loňského roku.
cover.jpg
Jen tak pro zajímavost
foobar2000 1.2.9 / Dynamic Range Meter 1.1.1
log date: 2018-01-17 10:01:18
--------------------------------------------------------------------------------
Analyzed: Nine Inch Nails / ADD VIOLENCE
--------------------------------------------------------------------------------
DR Peak RMS Duration Track
--------------------------------------------------------------------------------
DR2 -1.11 dB -5.64 dB 3:30 01-LESS THAN
DR4 -0.10 dB -6.74 dB 4:10 02-THE LOVERS
DR4 -0.12 dB -5.54 dB 4:44 03-THIS ISN'T THE PLACE
DR4 -0.07 dB -6.46 dB 3:07 04-NOT ANYMORE
DR4 -0.12 dB -8.22 dB 11:44 05-THE BACKGROUND WORLD
--------------------------------------------------------------------------------

Nevím, jestli se Trent Reznor zbláznil, nebo to tak má být (jak tu občas někteří tvrdí) :? Naposledy jsem podobnou prasárnu "zažil" v podání Iggyho Popa
(http://dr.loudness-war.info/album/view/123379).
Bez mučení přiznávám . . . ani jsem nedokázal doposlechnout 1. skladbu do konce *fnuk*

valderon
Příspěvky: 309
Registrován: 16 lis 2008 09:13
Kontaktovat uživatele:

Re: Příšerná kvalita originálních CD

Příspěvek od valderon »

Už jsem viděl měření všelijaké, ale DR 2? Tak to už je zralé na trest hifistum prospěšných prací 😁. To už je k pláči. Skoro mám chuť říct, že to ani udělat nejde... Bohužel vidím, že ano.

Uživatelský avatar
sonofstars
Příspěvky: 1177
Registrován: 17 bře 2016 15:33
Kontaktovat uživatele:
Vybavení

Re: Příšerná kvalita originálních CD

Příspěvek od sonofstars »

Zajimave, zkusil jsem na Apple music jen tak do sluchatek a opravdu nic moc. Ale mozna nejsem jen cilova skupina. Zvukove se mi to take nelibi. 🤔

Uživatelský avatar
cvrcek69
Příspěvky: 125
Registrován: 10 črc 2014 11:21
Kontaktovat uživatele:
Vybavení

Re: Příšerná kvalita originálních CD

Příspěvek od cvrcek69 »

Dobrý večer všem. Nevím jestli to patří sem ale často se setkávám s příšernými pazvuky u dechů...např. Laco Déczi Live In Sono, občas tam je příšerné prskání ve zvuku trubky...často je to slyšet i u nahrávek ASPM. U stažených alb to chápu jako zmršený převod do Flac ale u origo CD to nechápu...Není to jen u dechů i když tam mne to vadí nejvíc... Může to být mojí sestavičkou či to fakt pustí do světa i takhle nepovedený ? Myslel jsem že to je bedýnkami( Tannoy M2) ale dělá to i ve sluchátkách ze zesilovače. Dragonfly red též...Naposledy jsem se s tím setkal u CD R. Planta Carry Fire ve skladbě The May Queen hned na začátku, hodně nepříjemný pazvuky... I na CD Colosseum Bread&Circuses se něco málo najde.

Uživatelský avatar
Fidas
Příspěvky: 712
Registrován: 17 dub 2008 16:44
Kontaktovat uživatele:
Vybavení

Re: Příšerná kvalita originálních CD

Příspěvek od Fidas »

Cvrcek: Zkus vzít několik svých problémových CD a u někoho je přehrát. Možná je to v přehrávači nebo zarušená elektrika.

Odpovědět

Kdo je online

Uživatelé prohlížející si toto fórum: Žádní registrovaní uživatelé a 1 host