Příšerná kvalita originálních CD

CD, SACD, HDCD, DVD, DVDAudio, BluRay, streamovaní, formáty, média, online služby, playery, digitální knižnice a vše kolem digitálu
Odpovědět
ayman
Příspěvky: 92
Registrován: 06 bře 2016 22:49
Kontaktovat uživatele:

Re: Příšerná kvalita originálních CD

Příspěvek od ayman »

No zajímavá diskuze, já mám asi oproti většině z vás low end aparaturu, ale DR zmršený album mě nebaví, je to plochý, nebaví mě to. Mě třeba i překvapuje, když se tady řešilo rozdíl mezi 320 Kpbs a CD kvalitou treba u Tidal nebo Deezeru, kolik lidí psalo že to prostě nejde poznat a je to jen placebo. Tak nevím co je to tu za "hifisty" když i já na své, oproti většině z vás, obyč.aparatuře to slyším.

Uživatelský avatar
PítrsPraha
Příspěvky: 3884
Registrován: 05 pro 2013 10:13
Kontaktovat uživatele:
Vybavení

Re: Příšerná kvalita originálních CD

Příspěvek od PítrsPraha »

Ramones píše:V opravdu slepém testu by nikdo z nich rozdíl neslyšel.
Ramones píše:malý rozsah dynamiky, ktery treba v ... rockové muzic zase tak moc nevadi
Ramones píše:mp3 jsou kvalitou zvuku plně dostatečný
Ramones píše:Trefit v korektním slepém testu dvakrát za sebou šest skladeb ze šesti je náhoda.
Ramones píše:128 kbps mp3 je dostatečný pro hifi
...a následně ve světle výše uvedeného:
Ramones píše:NECHCI BYT PRED SEBOU ZA BLBCE
To je smutý čtení na hifi fóru. Je mi líto, že někdo může dopadnout až takhle... Zbytek viz LUK.
Naposledy upravil(a) PítrsPraha dne 28 led 2021 09:05, celkem upraveno 1 x.

Uživatelský avatar
PítrsPraha
Příspěvky: 3884
Registrován: 05 pro 2013 10:13
Kontaktovat uživatele:
Vybavení

Re: Příšerná kvalita originálních CD

Příspěvek od PítrsPraha »

ayman:
Někteří kolegové poslouchali z běžných počítačů a taky neměli problém. Já také na sluchátkovém výstupu stolního PC s integrovanou zvukovkou přes obyčejné špunty za tři tisícovky a bez problému 100% výsledek...

Uživatelský avatar
AlienCZ
Příspěvky: 266
Registrován: 24 dub 2008 11:27
Kontaktovat uživatele:
Vybavení

Re: Příšerná kvalita originálních CD

Příspěvek od AlienCZ »

AlienCZ píše:
27 led 2021 18:42
vanav píše:
27 led 2021 18:14
K těch DM Ultra. Jasný záměr vydat LW asi těžko, protože LP z roku vydání má DR12.
http://dr.loudness-war.info/album/view/82633
Tohle album mám náhodou ripnuté z CD z roku 1997 (vlastní) do wavu. Jak bych si mohl sám změřit to DR a porovnat si to?
Ověřeno, DR12, zde je LOG:
Violator_foo_dr.txt
(1.26 KiB) Staženo 29 x

Uživatelský avatar
weiron
Příspěvky: 301
Registrován: 27 dub 2014 16:46
Kontaktovat uživatele:
Vybavení

Re: Příšerná kvalita originálních CD

Příspěvek od weiron »

Celí tento problém s DR vlastně vysvětluje proč tolik lidí v posledních letech přešlo na analog. Když jsem se dnes díval jaké DR mají některá cd ve sbírce. Tak vše je v průměru DR 4-6. To samé na vinylu 9-15. Tady je tedy vidět, že se posluchači na kvalitu nevykašlali a hodně jich upřednostňuje větší dynamický rozsah nad vyšším zkreslením bez dynamiky.

Uživatelský avatar
LUK
Příspěvky: 287
Registrován: 20 čer 2013 15:57
Kontaktovat uživatele:

Re: Příšerná kvalita originálních CD

Příspěvek od LUK »

AlienCZ píše:
28 led 2021 12:27
AlienCZ píše:
27 led 2021 18:42
vanav píše:
27 led 2021 18:14
K těch DM Ultra. Jasný záměr vydat LW asi těžko, protože LP z roku vydání má DR12.
http://dr.loudness-war.info/album/view/82633
Tohle album mám náhodou ripnuté z CD z roku 1997 (vlastní) do wavu. Jak bych si mohl sám změřit to DR a porovnat si to?
Ověřeno, DR12, zde je LOG:
Violator_foo_dr.txt
To je úplně jiný album, řeč byla o albu Ultra ne o albu Violator.

Uživatelský avatar
AlienCZ
Příspěvky: 266
Registrován: 24 dub 2008 11:27
Kontaktovat uživatele:
Vybavení

Re: Příšerná kvalita originálních CD

Příspěvek od AlienCZ »

Máš pravdu, zítra změřím Ultru :-) Víš jak to je, myslím na Ultra a měřím Violátor :-) DM mám všechny CD, tak je vyzkouším jak na tom jsou.

ZdenekJR
Příspěvky: 103
Registrován: 19 dub 2017 12:12
Kontaktovat uživatele:

Re: Příšerná kvalita originálních CD

Příspěvek od ZdenekJR »

ještě k raw power LUK: "To se ti fakt líbí, že ten 1997 remaster chrčí, prská, drnčí, duní, hučí, tříská..... prostě je to jen hluková stěna? ". Ano líbí, mám rád např. Throbbing Gristle. Ale i ten Bowieho mix, který má (mám vydání z r. 2016, dvojCD) - DR 8-11

pokusím se to vysvětlit ještě jednou - ten Iggyho mix považuju za extrém, ne za typický příklad loudnesswar - která mě taky velmi štve

ZdenekJR
Příspěvky: 103
Registrován: 19 dub 2017 12:12
Kontaktovat uživatele:

Re: Příšerná kvalita originálních CD

Příspěvek od ZdenekJR »

možná opět trochu OT, ale nevím zda jste zaregistrovali vztah DR vs mp3, kde mp3 komprese má na DR kupodivu malý vliv

jako příklad uvádím album Ezz-thetics od George Russela (z 5CD kompletu The Complete Albums Collection 1956-1964, z roku 2015)

FLAC vyrobený z WAV

DR Peak RMS Duration Track
--------------------------------------------------------------------------------
DR12 0.00 dB -15.17 dB 9:00 ?-01_George Russell_Ezz-Thetic
DR10 -2.26 dB -16.94 dB 4:41 ?-02_George Russell_Nardis
DR13 -1.25 dB -18.61 dB 8:08 ?-03_George Russell_Lydiot
DR11 -1.06 dB -16.03 dB 5:37 ?-04_George Russell_Thoughts
DR13 -0.29 dB -17.83 dB 9:04 ?-05_George Russell_Honesty
DR12 -1.80 dB -17.80 dB 6:35 ?-06_George Russell_Round Midnight
--------------------------------------------------------------------------------

Number of tracks: 6
Official DR value: DR12

Samplerate: 44100 Hz
Channels: 2
Bits per sample: 16
Bitrate: 743 kbps
Codec: FLAC


vbr mp3 vyrobený ze stejných WAV (jako FLACy)

DR Peak RMS Duration Track
--------------------------------------------------------------------------------
DR12 0.00 dB -15.17 dB 9:00 ?-01_George Russell_Ezz-Thetic
DR10 -2.21 dB -16.94 dB 4:41 ?-02_George Russell_Nardis
DR13 -1.37 dB -18.61 dB 8:08 ?-03_George Russell_Lydiot
DR12 -1.10 dB -16.03 dB 5:37 ?-04_George Russell_Thoughts
DR13 -0.27 dB -17.83 dB 9:04 ?-05_George Russell_Honesty
DR12 -1.87 dB -17.79 dB 6:35 ?-06_George Russell_Round Midnight
--------------------------------------------------------------------------------

Number of tracks: 6
Official DR value: DR12

Samplerate: 44100 Hz
Channels: 2
Bitrate: 187 kbps
Codec: MP3


jestli je to tady úplně mimo, tak to klidně přesuňte jinam

Uživatelský avatar
Ramones
Příspěvky: 1281
Registrován: 19 zář 2009 19:05
Kontaktovat uživatele:

Re: Příšerná kvalita originálních CD

Příspěvek od Ramones »

Ano, to jsou ty "jiné levly od 1.taktu", "neposlouchatelné MP3 ani do kuchyně" ... atd :D

Bazi 36
Příspěvky: 1141
Registrován: 04 lis 2017 16:20
Kontaktovat uživatele:

Re: Příšerná kvalita originálních CD

Příspěvek od Bazi 36 »

Tak, jak vidno, pokud chcete vylepšit DR, komprimujte do Mp3...viz track č 4.

FS
Příspěvky: 999
Registrován: 29 říj 2016 00:30
Kontaktovat uživatele:
Vybavení

Re: Příšerná kvalita originálních CD

Příspěvek od FS »

ZdenekJR píše:
28 led 2021 18:08
možná opět trochu OT, ale nevím zda jste zaregistrovali vztah DR vs mp3, kde mp3 komprese má na DR kupodivu malý vliv ...
Proč "kupodivu" ?

FS
Příspěvky: 999
Registrován: 29 říj 2016 00:30
Kontaktovat uživatele:
Vybavení

Re: Příšerná kvalita originálních CD

Příspěvek od FS »

Bazi 36 píše:
28 led 2021 18:50
Tak, jak vidno, pokud chcete vylepšit DR, komprimujte do Mp3...viz track č 4.
Čtení k věci na straně 13:
https://website-maat-digital-downloads. ... ter_UM.pdf

ZdenekJR
Příspěvky: 103
Registrován: 19 dub 2017 12:12
Kontaktovat uživatele:

Re: Příšerná kvalita originálních CD

Příspěvek od ZdenekJR »

musím přiznat, že mě to překvapilo. Velmi se omlouvám, za svojí trestuhodnou neznalost (principů komprese zvuku)

Uživatelský avatar
Ramones
Příspěvky: 1281
Registrován: 19 zář 2009 19:05
Kontaktovat uživatele:

Re: Příšerná kvalita originálních CD

Příspěvek od Ramones »

Fištroni ty mp3.
Co si všechno navymýšlí :D

Odpovědět

Kdo je online

Uživatelé prohlížející si toto fórum: Žádní registrovaní uživatelé a 1 host