Příšerná kvalita originálních CD

CD, SACD, HDCD, DVD, DVDAudio, BluRay, streamovaní, formáty, média, online služby, playery, digitální knižnice a vše kolem digitálu
Odpovědět
Herrer
Příspěvky: 256
Registrován: 02 říj 2014 07:52
Kontaktovat uživatele:
Vybavení

Re: Příšerná kvalita originálních CD

Příspěvek od Herrer »

LUK: Tos mě docela překvapil. Měl jsem komplet SACD od DM a vůbec mi jako pokrok oproti CD nepřišly. U starších desek to byl dokonce spíš downgrade.

Docela jsi mi teď nasadil brouka do hlavy :-)
Nadral reprosoustavy

Uživatelský avatar
AlienCZ
Příspěvky: 266
Registrován: 24 dub 2008 11:27
Kontaktovat uživatele:
Vybavení

Re: Příšerná kvalita originálních CD

Příspěvek od AlienCZ »

Herrer píše:
29 led 2021 14:36
...Naopak, s odchodem Wildera a plnohodnotným nástupem produkce Ťuka (Gore) a Bzuka (Hillier), se k rachotu technickému přidal ještě cílený rachot elektronický/syntezátorový, ale to už je jinej příběh, ktrerej tu přeřvanou hrůzu jen umocnil a často povýšil až na neposlouchatelnou břečku..
Ahoj, taky jsem "depešák" té doby. Ale na odchod Wildera bych to neházel. Jeho první album Recoil Liquid je klasická LW s hodnotou DR6, mám origo CD z roku kdy to vydal.

Tak to ULTRA co mám je na DR7 - bída. Poslední TOP DR měl ten Violátor.

vanav
Příspěvky: 64
Registrován: 25 zář 2008 07:30
Kontaktovat uživatele:

Re: Příšerná kvalita originálních CD

Příspěvek od vanav »

Nejlepší digi verze ULTRy s DR12 vyšla na DVD https://www.discogs.com/Depeche-Mode-Ul ... e/12467595.

Stejně vyšly ještě alba Exciter DR11, Playing the Angel DR13 a Sounds of the Universe DR13.

foobar2000 1.1.13 / Dynamic Range Meter 1.1.1
log date: 2013-01-02 22:05:48

--------------------------------------------------------------------------------
Analyzed: Depeche Mode / Ultra (Collectors Edition)
--------------------------------------------------------------------------------

DR Peak RMS Duration Track
--------------------------------------------------------------------------------
DR12 -0.35 dB -13.64 dB 5:35 01-Barrel of a Gun
DR12 -0.85 dB -14.53 dB 6:34 02-The Love Thieves
DR11 -0.98 dB -13.93 dB 5:43 03-Home
DR11 -0.06 dB -12.70 dB 6:00 04-It's No Good
DR11 -2.51 dB -18.17 dB 2:22 05-Uselink
DR11 -0.37 dB -12.78 dB 5:12 06-Useless
DR12 -0.43 dB -14.94 dB 6:02 07-Sister of Night
DR10 -3.42 dB -16.17 dB 2:58 08-Jazz Thieves
DR12 -0.44 dB -14.78 dB 6:40 09-Freestate
DR11 -0.92 dB -15.28 dB 4:27 10-The Bottom Line
DR12 -0.80 dB -15.68 dB 6:26 11-Insight
DR15 -10.07 dB -29.37 dB 2:10 12-Junior Painkiller
--------------------------------------------------------------------------------

Number of tracks: 12
Official DR value: DR12

Samplerate: 48000 Hz
Channels: 2
Bits per sample: 24
Bitrate: 1579 kbps
Codec: FLAC
================================================================================

Uživatelský avatar
AlienCZ
Příspěvky: 266
Registrován: 24 dub 2008 11:27
Kontaktovat uživatele:
Vybavení

Re: Příšerná kvalita originálních CD

Příspěvek od AlienCZ »

Vanav:

Díky za info. To omrknu.

Uživatelský avatar
Karel1
Příspěvky: 304
Registrován: 05 led 2015 13:24
Kontaktovat uživatele:
Vybavení

Re: Příšerná kvalita originálních CD

Příspěvek od Karel1 »

ASIA MINOR.jpg
Další nevyužitá šance ke křišťálovému zvuku :cry:
Docela by mě zajímalo, kdo si tuto muziku pustí v MP3 v autě či nacpe do šuntušpuntů :?

Herrer
Příspěvky: 256
Registrován: 02 říj 2014 07:52
Kontaktovat uživatele:
Vybavení

Re: Příšerná kvalita originálních CD

Příspěvek od Herrer »

AlienCZ: Nepsal jsem o tom, že by Wilder mohl za Loudness War, že by proti ní byl ve své tvorbě imunní, nebo dokonce že by před ní DM ochránil. Myslel jsem to tak, že v době jeho odchodu LW celosvětově vypukla a pro DM to znamenalo, že budoucí spolupráce s Hillierem, resp. jeho představou o zvuku, ten nastalý problém už jen prohloubila.
Nadral reprosoustavy

Herrer
Příspěvky: 256
Registrován: 02 říj 2014 07:52
Kontaktovat uživatele:
Vybavení

Re: Příšerná kvalita originálních CD

Příspěvek od Herrer »

vanav: Byl jsem na 100 % přesvědčen že ta dobrá čísla se týkají 5.1 verze. Pokud to je opravdu tak, jak ukazuje ta analýza, tak i za mě velký dík.

Tak máš recht...

http://dr.loudness-war.info/album/list? ... e+universe
Nadral reprosoustavy

Uživatelský avatar
AlienCZ
Příspěvky: 266
Registrován: 24 dub 2008 11:27
Kontaktovat uživatele:
Vybavení

Re: Příšerná kvalita originálních CD

Příspěvek od AlienCZ »

Napadá mě nebylo by lepší založit vlákno Depeche Mode? Ať to tady nezasíráme jednou kapelou a pak by se to tady mohlo i promazat. Přeci jen je to kultovka tak by si to možná zasloužila :-)

vanav
Příspěvky: 64
Registrován: 25 zář 2008 07:30
Kontaktovat uživatele:

Re: Příšerná kvalita originálních CD

Příspěvek od vanav »

Herrer: Není zač. Z DVD jsem si ty stereo stopy ukládal sám. A u prvních 13 skladeb Sounds of the Universe (bez bonusů) mi vyšlo DR13.

Uživatelský avatar
AlienCZ
Příspěvky: 266
Registrován: 24 dub 2008 11:27
Kontaktovat uživatele:
Vybavení

Re: Příšerná kvalita originálních CD

Příspěvek od AlienCZ »

Chlapi HELP.
Čím vytahujete audiostopy z DVD? Už jsem z toho úplně vypadl, mám tady ten Playing the Angel na tom DVD-A a chtěl bych si to uložit do WAV.
EAC mi to nepřečte.

vanav
Příspěvky: 64
Registrován: 25 zář 2008 07:30
Kontaktovat uživatele:

Re: Příšerná kvalita originálních CD

Příspěvek od vanav »

Myslím, že sem to dělal tímhle, ale máš na to jenom 30 dnů. https://www.dvdae.com/

Uživatelský avatar
AlienCZ
Příspěvky: 266
Registrován: 24 dub 2008 11:27
Kontaktovat uživatele:
Vybavení

Re: Příšerná kvalita originálních CD

Příspěvek od AlienCZ »

Zkusím.
Zkoušel jsem DVDFab, stereostopa z toho DVD-A vyšla jen na DR6 :-(
Tak ten extractor už nedám, asi jsem ho už někdy měl a trial už mi nejede.

Uživatelský avatar
AlienCZ
Příspěvky: 266
Registrován: 24 dub 2008 11:27
Kontaktovat uživatele:
Vybavení

Re: Příšerná kvalita originálních CD

Příspěvek od AlienCZ »

Tak bohužel, tohle DVD-A "Playing the Angel" ani na jedné ze tří stop nedá víc jak DR7.

ZdenekJR
Příspěvky: 103
Registrován: 19 dub 2017 12:12
Kontaktovat uživatele:

Re: Příšerná kvalita originálních CD

Příspěvek od ZdenekJR »

když se chce, tak to jde...

ikonická deska UK anarcho-punku - Crass ‎– The Feeding Of The 5000 (The Second Sitting), 1. vydání v roce 1979 (recorded live at Southern Studios, London 29/10/78)

vydání z roku 2019 (Crass Records ‎– 621984 CDR) bylo poznamenáno remastrem: "The album has been remastered by Alex Gordon and Penny Rimbaud at Abbey Road Studios as close as possible to the sound of the original release "as it was in the beginning""

ale DR kupodivu v pořádku:

DR10 -5.18 dB -19.53 dB 01_Crass_Asylum.wav
DR12 -2.18 dB -15.52 dB 02_Crass_Do They Owe Us a Living.wav
DR13 -2.00 dB -16.81 dB 03_Crass_End Result.wav
DR13 -0.79 dB -16.41 dB 04_Crass_They've Got a Bomb.wav
DR14 -2.23 dB -17.39 dB 05_Crass_Punk Is Dead.wav
DR13 -1.86 dB -16.36 dB 06_Crass_Reject of Society.wav
DR13 -1.12 dB -15.53 dB 07_Crass_General Bacardi.wav
DR14 -1.31 dB -17.23 dB 08_Crass_Banned From the Roxy.wav
DR14 -2.05 dB -17.58 dB 09_Crass_G's Song.wav
DR10 -6.34 dB -30.53 dB 10_Crass_Fight War, Not Wars.wav
DR10 -6.79 dB -17.91 dB 11_Crass_Women.wav
DR12 -2.17 dB -16.58 dB 12_Crass_Securicor.wav
DR13 -3.06 dB -17.92 dB 13_Crass_Sucks.wav
DR13 -1.70 dB -18.01 dB 14_Crass_You Pay.wav
DR13 -2.59 dB -18.31 dB 15_Crass_Angels.wav
DR13 -1.77 dB -16.74 dB 16_Crass_What a Shame.wav
DR14 -0.68 dB -16.50 dB 17_Crass_So What.wav
DR13 -2.91 dB -17.59 dB 18_Crass_Well ... Do They.wav
----------------------------------------------------------------------------------------------
Number of files: 18
Official DR value: DR13

jestli je ale tato nahrávka poslouchatelná pro místní sekerníky je otázka...

Odpovědět

Kdo je online

Uživatelé prohlížející si toto fórum: Žádní registrovaní uživatelé a 1 host