Co právě poslouchám

Dnes hraje nebo hrálo ...
Odpovědět
jisk
Příspěvky: 100
Registrován: 21 srp 2015 11:52
Kontaktovat uživatele:
Vybavení

Re: Co právě poslouchám

Příspěvek od jisk »

King Crimson - Live in Vienna

parádní zážitek s basovo-rytmickým základem

Obrázek

Uživatelský avatar
dadaft
Příspěvky: 5898
Registrován: 24 dub 2008 09:50
Kontaktovat uživatele:
Vybavení

Re: Co právě poslouchám

Příspěvek od dadaft »

Obrázek

Kendrick LAMAR - To Pimp A Butterfly

Kendrick Lamar nedávno dostal Pulitzerovu cenu za hudbu (ani jsem netušil, že se dává i za hudbu), za album DAMN.
Početl jsem článek
https://a2larm.cz/2018/04/dva-rapovi-pa ... e-stolici/
a říkal si - tak od toho lemura nebo jak se menuje něco zkusím no,,,,,,,,,,,,,,,,,,,,,,,,,,,,,

To Pimp A Butterfly
je skvělá deska. Fakt. Není to jen rap, dost se tam i zpívá, a zvukově je to promakané -- sbory, různé vychytávky s echy, jindy zas nečekané sólo akustického nástroje...... hifista si přijde na své. ;)
A je to muzikální.

První rapová deska v dějinách, kterou skutečně beru na milost ač to není a nikdy nebude můj šálek kávy.

Uživatelský avatar
koudelka
Příspěvky: 373
Registrován: 11 led 2010 09:49
Kontaktovat uživatele:
Vybavení

Re: Co právě poslouchám

Příspěvek od koudelka »

Už asi týden neposlouchám nic jiného než trio Wollny/Kruse/Schaefer a další varianty a kombinace těchto hudebníků a moooooc se mi to líbí, takže doporučuji pozornosti :)


Obrázek

Uživatelský avatar
Pytel
Příspěvky: 1143
Registrován: 19 dub 2008 08:59
Kontaktovat uživatele:

Re: Co právě poslouchám

Příspěvek od Pytel »

Poslouchám toto 2 x SACD : http://www.cdjapan.co.jp/product/OVCL-6 ... ad7938218a

Co se týče zvuku -- špička, přivezeno dnes od E. Rannýho.

Uživatelský avatar
dadaft
Příspěvky: 5898
Registrován: 24 dub 2008 09:50
Kontaktovat uživatele:
Vybavení

Re: Co právě poslouchám

Příspěvek od dadaft »

Obrázek

Diana KRALL - Turn Up The Quiet

Uživatelský avatar
dadaft
Příspěvky: 5898
Registrován: 24 dub 2008 09:50
Kontaktovat uživatele:
Vybavení

Re: Co právě poslouchám

Příspěvek od dadaft »

koudelka píše:
18 dub 2018 16:33
Už asi týden neposlouchám nic jiného než trio Wollny/Kruse/Schaefer a další varianty a kombinace těchto hudebníků a moooooc se mi to líbí, takže doporučuji pozornosti :)

Obrázek
Obrázek

Michael Wollny Trio in concert - Klangspuren (Live in Hamburk)

Tak jsem dal první kousek z Koudelkova seznamu.
Tohle má duši.
Tohle má svůj styl.
Místy romantické (Der Wanderer), místy free a experimentální (De Desconfort nebo When the Sleepers Wake), vždy dobré. *palec*

(Plus super nahrané samozřejmě.)

zabiny007
Příspěvky: 1277
Registrován: 26 kvě 2014 14:16

Re: Co právě poslouchám

Příspěvek od zabiny007 »

Tak tohle SACD jsem pořídil na zdejší doporučení (tuším Oldear???) a je to neskutečná pecka!

Obrázek

A pak mi dnes dorazil ještě jeden stříbrný kotouček a to klasická nahrávka 1812, ale na DVDaudio a musím říct, že je ještě lepší, než SACD:
R-7862621-1450397432-4747.jpeg.jpg
Už se těším na červenec - to vyjde opět na vinylu - viz:
https://www.jpc.de/jpcng/classic/detail ... um/8068238
Obrázek

Uživatelský avatar
PetrD
Příspěvky: 848
Registrován: 01 pro 2013 19:06
Kontaktovat uživatele:

Re: Co právě poslouchám

Příspěvek od PetrD »

Po čtrnácti letech jsem se dočkal *jupi*
Perfect.jpg
A Perfect Circle - "Eat the Elephant"
A_Perfect_Circle_LP.jpg
Skvělé album, ale při poslechu mi tam něco nesedí . . .

Analyzed: A Perfect Circle / Eat The Elephant
--------------------------------------------------------------------------------

DR Peak RMS Duration Track
--------------------------------------------------------------------------------
DR4 0.00 dB -5.89 dB 5:14 01-Eat The Elephant
DR4 0.00 dB -7.52 dB 5:54 02-Disillusioned
DR5 0.00 dB -6.58 dB 3:59 03-The Contrarian
DR3 0.00 dB -6.42 dB 4:42 04-The Doomed
DR4 0.00 dB -5.63 dB 4:26 05-So Long, and Thanks for All the Fish
DR4 0.00 dB -5.92 dB 4:09 06-TalkTalk
DR5 0.00 dB -6.55 dB 5:05 07-By and Down the River
DR3 0.00 dB -4.67 dB 3:50 08-Delicious
DR6 -5.75 dB -14.31 dB 2:07 09-DLB
DR5 0.00 dB -7.82 dB 5:14 10-Hourglass
DR4 0.00 dB -6.06 dB 5:48 11-Feathers
DR7 0.00 dB -9.43 dB 6:41 12-Get the Lead Out
------------------------------------------------------------------------------
Number of tracks: 12
Official DR value: DR4

A pak se diví, že klesá zájem o CD *fnuk*

vitek
Příspěvky: 158
Registrován: 13 led 2009 15:26
Kontaktovat uživatele:

Re: Co právě poslouchám

Příspěvek od vitek »

zabiny007 píše:
19 dub 2018 18:02
Tak tohle SACD jsem pořídil na zdejší doporučení (tuším Oldear???) a je to neskutečná pecka!

Obrázek
A LP jsi nechtěl?

WaVe_99
Příspěvky: 302
Registrován: 18 lis 2010 12:56
Kontaktovat uživatele:

Re: Co právě poslouchám

Příspěvek od WaVe_99 »

http://avishaicohen.com/album/from-darkness/

Tohle je výborná deska, zvukově také dobré, pokud to tu již proběhlo, tak se omlouvám :-)

Obrázek

WaVe_99
Příspěvky: 302
Registrován: 18 lis 2010 12:56
Kontaktovat uživatele:

Re: Co právě poslouchám

Příspěvek od WaVe_99 »

PetrD píše:
19 dub 2018 18:39
Po čtrnácti letech jsem se dočkal *jupi*
Perfect.jpg

A Perfect Circle - "Eat the Elephant"
A_Perfect_Circle_LP.jpg

Skvělé album, ale při poslechu mi tam něco nesedí . . .

Analyzed: A Perfect Circle / Eat The Elephant
--------------------------------------------------------------------------------

DR Peak RMS Duration Track
--------------------------------------------------------------------------------
DR4 0.00 dB -5.89 dB 5:14 01-Eat The Elephant
DR4 0.00 dB -7.52 dB 5:54 02-Disillusioned
DR5 0.00 dB -6.58 dB 3:59 03-The Contrarian
DR3 0.00 dB -6.42 dB 4:42 04-The Doomed
DR4 0.00 dB -5.63 dB 4:26 05-So Long, and Thanks for All the Fish
DR4 0.00 dB -5.92 dB 4:09 06-TalkTalk
DR5 0.00 dB -6.55 dB 5:05 07-By and Down the River
DR3 0.00 dB -4.67 dB 3:50 08-Delicious
DR6 -5.75 dB -14.31 dB 2:07 09-DLB
DR5 0.00 dB -7.82 dB 5:14 10-Hourglass
DR4 0.00 dB -6.06 dB 5:48 11-Feathers
DR7 0.00 dB -9.43 dB 6:41 12-Get the Lead Out
------------------------------------------------------------------------------
Number of tracks: 12
Official DR value: DR4

A pak se diví, že klesá zájem o CD *fnuk*
To je strašný :-( Nicméně, Thirteenth Step má taky na hovno DR (7) a mě to uši nerve, mám tu desku strašně rád. Tak snad to nebude taková katastrofa.

zabiny007
Příspěvky: 1277
Registrován: 26 kvě 2014 14:16

Re: Co právě poslouchám

Příspěvek od zabiny007 »

Vítek
To víš že chci, mám jej ve "sledovačce" na discogs a časem jej dokoupím. Ale aktuálně jsou na prodej jen z US nebo Švajcu, což znamená vyšší náklady na dopravu + clo+ DPH a pak jeden z Německa, ale ten krom ceny 57 Euro chce ještě nesmyslných 26 Euro za dopravu. Vedle toho bylo toto SACD za nějakých 15 EURO a měl jej prodejce, u kterého jsem bral nějaké vinyly, takže doprava byla "skorozadarmo"... Tak jsem jej vzal na poslech a do sbírky a na LP si počkám...

Uživatelský avatar
PetrD
Příspěvky: 848
Registrován: 01 pro 2013 19:06
Kontaktovat uživatele:

Re: Co právě poslouchám

Příspěvek od PetrD »

WaVe_99 píše: . . . Nicméně, Thirteenth Step má taky na hovno DR (7) a mě to uši nerve, mám tu desku strašně rád. Tak snad to nebude taková katastrofa.
Od "A Perfect Circle" mám všechna předešlá CD a žádné nemá nějakou extra dynamiku :( , přesto si tuto muziku vždy užívám. Jak správně zmiňuješ, uši to nerve . . . ale znova si musím položit otázku "proboha proč?" :? Mám rád Maynarda J. Keenana a jelikož nových Tool se už asi nedožiji, byl jsem strašně rád za nové album od A Perfect Circle.
*offtopic* A ještě malá poznámka mimo téma . . . zrovna dnes si byl kamarád vypůjčit nějaká CD, mimo jiné i Genesis z roku 1983 (Catalog number 814287-2). Jelikož jsem ho strašně dlouho neslyšel, trochu jsme zavzpomínali (tento kousek jsem pořídil za komančů v Praze na burze za čtvrtinu tehdejší výplaty :roll: ). Ty vole...to bylo něco, totální nářez. Ta dynamika, ta čistota nahrávky :o Málem nám spadl barák. Jen tak mimochodem -> na dnešní poměry neskutečné DR16 *klanimse*
PS: Alba Genesis bez Gabriela a Hacketta mě už moc neberou, proto si každý okamžik, kdy dojde na jejich poslech, musím užít ;)

WaVe_99
Příspěvky: 302
Registrován: 18 lis 2010 12:56
Kontaktovat uživatele:

Re: Co právě poslouchám

Příspěvek od WaVe_99 »

PetrD - je to tak, jak pises. BTW, pokud se nepletu, Tool novou desku zrovna toci :-) Dockas se. A mam to stejne jako ty, M.J.Keenana mam strasne rad, i vsechny jeho side projekty. Problem je, ze dneska kazdej nosi na usich pecky a posloucha z Iphone, nebo Samsungu :-) My jsme totalni minorita a svym zpusobem se nedivim, ze vydavatelstvi tento podil na trhu logicky zohlednuje. Ale strasne to boli :-)

Uživatelský avatar
PetrD
Příspěvky: 848
Registrován: 01 pro 2013 19:06
Kontaktovat uživatele:

Re: Co právě poslouchám

Příspěvek od PetrD »

"Tool novou desku zrovna točí" Fakt, jo? *jupi*
"Problém", který zmiňuješ a který by jako měl být důvodem k mršení nahrávek bych pochopil ještě do té míry, kdyby se týkal muziky, kterou ten druh posluchačů poslouchá z pecek z Iphonu (či čeho já vím ještě). Jenže se to mršení týká i muziky, kterou oni v životě poslouchat nebudou, která je spíš pro tu naši minoritu. A když už, proč jdou až na DR3? :shock: Např. CD Nine Inch Nails - "Add Violence" jsem nedokázal doposlechnout :x To je neposlouchatelné i z těch pecek. Ale asi to tak Trent chce :?
Teď si dávám Motorpsycho - "The Tower" *thumbs up* Když se chce, tak to jde...velmi slušných DR11 ;)

Odpovědět

Kdo je online

Uživatelé prohlížející si toto fórum: Žádní registrovaní uživatelé a 1 host